На всех торрентах на трекере установлена скидка на скачивание в размере 100 процентов(а).
 Возможность скачивания торрента НЕ зависит от ограничений при низком ратио, низком аплоаде, требуемом ратио или требуемом аплоаде.


Начать новую тему Ответить на тему
Статистика раздачи
Размер: 7.51 ГБ | Добавлен: 25 май 2013, 23:37 | Скачали: 1
Сидеров: 8  [0 байт/сек]    Личеров: 0  [0 байт/сек]
Пред. тема | След. тема 

Автор
Сообщение

СообщениеДобавлено: 25 май 2013, 23:37 

Название: Правила съема: Метод Хитча
Оригинальное название: Hitch
Год выхода: 2005
Режиссер: Энди Теннант

В фильме снимались: Уилл Смит, Ева Мендес, Кевин Джеймс, Эмбер Валлетта, Джули Энн Эмери, Адам Аркин, Робин Ли, Натан Ли Грэхэм, Майкл Рапапорт, Джеффри Донован, Пола Пэттон, Филип Боско, Кевин Суссман, Навия Нгуйен, Мэтт Мэллой, Мария Тэйер, Ато Эссонда, Марлайн Эффлэк, Джек Хартнет, Дэвид Уайк, Дженна Штерн, Остин Лайзи, Адам ЛеФевр, Джо Ло Труглио, Птолеми Слокам, Кэхэн Джеймс, Мэтт Сервитто, Эми Хон, Мими Уэдделл, Молик Панчоли, Каприс Бенедетти, Тони Трэвис, Мерседес Ренард, Хосе Йана, Нильс Коизуми, Райан Кросс

Вкратце:
Алекс «Хитч» Хитченс — легендарный нью-йоркский «доктор-сват». Множеству мужчин он помог добиться взаимности от женщин их мечты. Хитч не бескорыстен, он получает за свою работу гонорар, но предусмотрительно хранит в тайне свой способ зарабатывать на жизнь. Новый клиент Хитча — Альберт, робкий бухгалтер, без ума влюблённый в гламурную звезду Аллегру Коул. Для Хитча этот случай должен стать вершиной его карьеры. Однако, работая над этим делом, он вдруг встречает достойного противника в лице эффектной и проницательной Сары Мелас, журналистки, ведущей колонку светских сплетен, и следящей за каждым шагом Аллегры. Профессиональный холостяк Хитч внезапно обнаруживает, что по уши влюблён в Сару, которая, в свою очередь, близка к сенсационному открытию: она только что вышла на след таинственного манхэттенского «доктора-свата»…



Страна: США
Студия: Columbia Pictures Corporation, Overbrook Entertainment
Продолжительность: 01:58:16
Перевод: Дублированный, профессиональный (двухголосый закадровый), авторский (одноголосый закадровый)


Кодек: h.264
Качество: BDRip (720p)
Видео: 6300 Кбит/с, 1280x534, 23.976 кадр/с

Звук:
• №1: Русский (АС3, 6 ch, 448 Кбит/с) Дублированный
• №2: Русский (АС3, 6 ch, 448 Кбит/с) Профессиональный двухголосый [Tycoon Studio]
• №3: Русский (АС3, 6 ch, 384 Кбит/с) Авторский [Антон Карповский]
• №4: Английский (DTS, 6 ch, 1536 Кбит/с)

Субтитры: Русские, английские

Видеоряд из сети

Полное имя : Hitch.2005.x264.BDRip.(720p).3xRus.AC3.Eng.DTS.mkv
Формат : Matroska
Версия формата : Version 4 / Version 2
Размер файла : 7,51 Гбайт
Продолжительность : 1 ч. 58 м.
Общий поток : 9093 Кбит/сек
Название фильма : Правила съема: Метод Хитча | Hitch [2005] -=BDRip (720p)=-
Дата кодирования : UTC 2013-05-25 06:45:23
Программа кодирования : mkvmerge v6.1.0 ('Old Devil') built on Mar 2 2013 14:32:37
Библиотека кодирования : libebml v1.3.0 + libmatroska v1.4.0

Видео
Идентификатор : 1
Формат : AVC
Формат/Информация : Advanced Video Codec
Профиль формата : High@L4.1
Параметр CABAC формата : Да
Параметр ReFrames формата : 9 кадров
Идентификатор кодека : V_MPEG4/ISO/AVC
Продолжительность : 1 ч. 58 м.
Битрейт : 6300 Кбит/сек
Ширина : 1280 пикселей
Высота : 534 пикселя
Соотношение сторон : 2,40:1
Частота кадров : 23,976 кадра/сек
Цветовое пространство : YUV
Субдискретизация насыщенности : 4:2:0
Битовая глубина : 8 бит
Тип развёртки : Прогрессивная
Бит/(Пиксели*Кадры) : 0.384
Размер потока : 5,06 Гбайт (67%)
Библиотека кодирования : x264 core 67 r1165M 6841c5e
Настройки программы : cabac=1 / ref=9 / deblock=1:-3:-3 / analyse=0x3:0x113 / me=umh / subme=9 / psy_rd=0.7:0.7 / mixed_ref=1 / me_range=28 / chroma_me=1 / trellis=2 / 8x8dct=1 / cqm=0 / deadzone=21,11 / chroma_qp_offset=-4 / threads=3 / nr=0 / decimate=1 / mbaff=0 / bframes=3 / b_pyramid=1 / b_adapt=2 / b_bias=0 / direct=3 / wpredb=1 / keyint=250 / keyint_min=25 / scenecut=40 / rc=2pass / bitrate=6300 / ratetol=1.0 / qcomp=0.60 / qpmin=10 / qpmax=51 / qpstep=4 / cplxblur=20.0 / qblur=0.5 / ip_ratio=1.40 / pb_ratio=1.30 / aq=1:0.70
Язык : English

Аудио #1
Идентификатор : 2
Формат : AC-3
Формат/Информация : Audio Coding 3
Расширение режима : CM (complete main)
Идентификатор кодека : A_AC3
Продолжительность : 1 ч. 58 м.
Вид битрейта : Постоянный
Битрейт : 448 Кбит/сек
Каналы : 6 каналов
Расположение каналов : Front: L C R, Side: L R, LFE
Частота : 48,0 КГц
Битовая глубина : 16 бит
Метод сжатия : С потерями
Размер потока : 379 Мбайт (5%)
Заголовок : AC3 5.1 448 kbps
Язык : Russian

Аудио #2
Идентификатор : 3
Формат : AC-3
Формат/Информация : Audio Coding 3
Расширение режима : CM (complete main)
Идентификатор кодека : A_AC3
Продолжительность : 1 ч. 58 м.
Вид битрейта : Постоянный
Битрейт : 448 Кбит/сек
Каналы : 6 каналов
Расположение каналов : Front: L C R, Side: L R, LFE
Частота : 48,0 КГц
Битовая глубина : 16 бит
Метод сжатия : С потерями
Размер потока : 379 Мбайт (5%)
Заголовок : Двухголосый закадровый AC3 5.1 448 kbps
Язык : Russian

Аудио #3
Идентификатор : 4
Формат : AC-3
Формат/Информация : Audio Coding 3
Расширение режима : CM (complete main)
Идентификатор кодека : A_AC3
Продолжительность : 1 ч. 58 м.
Вид битрейта : Постоянный
Битрейт : 384 Кбит/сек
Каналы : 6 каналов
Расположение каналов : Front: L C R, Side: L R, LFE
Частота : 48,0 КГц
Битовая глубина : 16 бит
Метод сжатия : С потерями
Размер потока : 325 Мбайт (4%)
Заголовок : Авторский [Антон Карповский] AC3 5.1 384 kbps
Язык : Russian

Аудио #4
Идентификатор : 5
Формат : DTS
Формат/Информация : Digital Theater Systems
Идентификатор кодека : A_DTS
Продолжительность : 1 ч. 58 м.
Вид битрейта : Постоянный
Битрейт : 1510 Кбит/сек
Каналы : 6 каналов
Расположение каналов : Front: L C R, Side: L R, LFE
Частота : 48,0 КГц
Битовая глубина : 24 бит
Метод сжатия : С потерями
Размер потока : 1,25 Гбайт (17%)
Заголовок : DTS 5.1 1536 kbps
Язык : English

Текст #1
Идентификатор : 6
Формат : UTF-8
Идентификатор кодека : S_TEXT/UTF8
Идентификатор кодека/Информация : UTF-8 Plain Text
Язык : Russian

Текст #2
Идентификатор : 7
Формат : UTF-8
Идентификатор кодека : S_TEXT/UTF8
Идентификатор кодека/Информация : UTF-8 Plain Text
Язык : English

Меню
00:00:00.000 : en:Start
00:06:36.604 : en:Sara
00:14:54.643 : en:Hitch in Action
00:20:28.894 : en:Late Bloomer
00:30:06.012 : en:Albert
00:36:02.827 : en:Shock and Awe
00:45:35.274 : en:How It's Done
00:52:19.845 : en:Handy Guy
00:58:49.317 : en:Over and Out
01:09:13.023 : en:Sunday Morning
01:14:50.152 : en:Ellis Island
01:21:14.870 : en:Failing with Flair
01:29:40.458 : en:Working Allegra
01:37:35.391 : en:Basic Training
01:44:23.715 : en:The Fire & the Pizza
01:52:37.500 : en:The Kissing Signal

загрузка...
Правила, инструкции, FAQ!!!
Торрент  Добавлен [25 май 2013, 23:37] Скачать торрент
Скачать торрент
[ Размер 19.36 КБ / Просмотров 12 ]

Статус  
 
Размер  7.51 ГБ
Приватный: Нет (DHT включён)
.torrent скачан  1
Как залить торрент? | Как скачать Torrent? | Как смотреть и слушать онлайн?  


     Отправить личное сообщение
   
Страница 1 из 1
Показать сообщения за:  Поле сортировки  
Начать новую тему Ответить на тему

   Похожие торренты   Автор   Ответы   Просмотры   Последнее сообщение 
В этой теме нет новых непрочитанных сообщений. Скачать торрент Правила съема: Метод Хитча / Hitch (Энди Теннант / Andy Tennant) [2005 г., романтическая комедия, HDRip] DVO (Tycoon)

в форуме Комедии, Размер: 745.66 МБ, Здоровье: 100%

Anonymous

0
12|4

34
0

22 апр 2014, 11:51

Anonymous Перейти к последнему сообщению

В этой теме нет новых непрочитанных сообщений. Скачать торрент Правила секса / The Rules of Attraction (2002) BDRip 720p

в форуме 720p | 1080p, Размер: 3.74 ГБ, Здоровье: 0%

Anonymous

0
0|0

42
0

09 фев 2014, 09:47

Anonymous Перейти к последнему сообщению

В этой теме нет новых непрочитанных сообщений. Скачать торрент Проверен The Strat Pack: Live In Concert (2005) (Terry Shand, Geoff Kemplin) [2005, Rock, BDRip, 720p]

в форуме Концерты (HD-Video), Размер: 8.7 ГБ, Здоровье: 100%

Anonymous

0
1|0

1
0

23 окт 2016, 15:44

Anonymous Перейти к последнему сообщению

В этой теме нет новых непрочитанных сообщений. Скачать торрент Проверен АБВГДейка. Правила дорожного движения (2005) DVDRip [H.264]

в форуме Развивающее Видео для детей, Размер: 475.87 МБ, Здоровье: 100%

Гость

0
6|2

12
0

30 ноя 2015, 23:57

Гость Перейти к последнему сообщению

В этой теме нет новых непрочитанных сообщений. Скачать торрент Правила секса / The Rules of Attraction (2002) BDRip

в форуме Драмы, Мелодрамы, Размер: 2.18 ГБ, Здоровье: 0%

Anonymous

0
0|0

44
0

09 фев 2014, 09:51

Anonymous Перейти к последнему сообщению



Сейчас этот форум просматривают: нет зарегистрированных пользователей и гости: 1


Вы не можете начинать темы
Вы не можете отвечать на сообщения
Вы не можете редактировать свои сообщения
Вы не можете удалять свои сообщения
Вы не можете добавлять вложения

Перейти:  

!ВНИМАНИЕ!
 Ресурс не предоставляет электронные версии произведений, а занимается лишь коллекционированием и каталогизацией ссылок, присылаемых и публикуемых на форуме нашими читателями. Если вы являетесь правообладателем какого-либо представленного материала и не желаете чтобы ссылка на него находилась в нашем каталоге, свяжитесь с нами и мы незамедлительно удалим её. Файлы для обмена на трекере предоставлены пользователями сайта, и администрация не несёт ответственности за их содержание. Просьба не заливать файлы, защищенные авторскими правами, а также файлы нелегального содержания!