На всех торрентах на трекере установлена скидка на скачивание в размере 100 процентов(а).
 Возможность скачивания торрента НЕ зависит от ограничений при низком ратио, низком аплоаде, требуемом ратио или требуемом аплоаде.


Начать новую тему Ответить на тему
Статистика раздачи
Размер: 7.86 ГБ | Добавлен: 26 дек 2014, 20:31 | Скачали: 7
Сидеров: 8  [0 байт/сек]    Личеров: 7  [0 байт/сек]
Пред. тема | След. тема 

Автор
Сообщение

СообщениеДобавлено: 25 май 2013, 21:56 

Название: Колдовство
Оригинальное название: The Craft
Год выхода: 1996
Жанр: ужасы, фэнтези, триллер, драма
Режиссер: Эндрю Флеминг
В ролях: Робин Танни, Файруза Балк, Нив Кэмпбелл, Рэйчел Тру, Скит Ульрих, Кристин Тейлор, Брекин Мейер, Натаниель Марстон, Клифф Де Янг, Ассумпта Серна

О фильме:
Три молодых ведьмочки, которых никто не переносит в собственной школе, в один прекрасный день вдруг интуитивно почувствовали, что вот-вот к ним присоединится четвертая. И действительно, в классе появляется новенькая, и теперь их четверо, как и сказано в заклинании, и они могут расквитаться со всеми обидчиками. Заклинания, змеи, крысы, пауки – колдовская четверка не дает проходу половине города, и сами, судя по всему, получают от этого немалое удовольствие. Но игра зашла слишком далеко – они разбудили колдовские силы, которые теперь не в силах остановить, даже когда гибнут ни в чем не повинные люди.



Страна: США
Студия: Columbia Pictures Corporation
Продолжительность: 01:40:59
Перевод: Дублированный, профессиональный многоголосый, авторский


Кодек: h.264
Качество: BDRip 720p
Видео: 6075 Кбит/с, 1280x692, 23.976 кадр/с

Звук:
• №1: Русский (AC3, 6 ch, 384 Кбит/с) Дублированный
• №2: Русский (AC3, 2 ch, 192 Кбит/с) Профессиональный многоголосый
• №3: Русский (AC3, 6 ch, 640 Кбит/с) Авторский одноголосый [Юрий Живов]
• №4: Русский (AC3, 2 ch, 192 Кбит/с) Авторский одноголосый [Сергей Визгунов]
• №5: Английский (AC3, 6 ch, 640 Кбит/с)
Отдельно:
• №6: Русский (DTS, 6 ch, 1509 Кбит/с) Авторский одноголосый [Юрий Живов]
• №7: Английский (DTS, 6 ch, 1509 Кбит/с)

Субтитры: Русские, английские, английские [SDH]

За исходный BDAV Blu-Ray Remux спасибо HDTracker

------------------------------------------------------------------------------------------------------------
x264 [info]: frame I:949 Avg QP:16.09 size:114274
x264 [info]: frame P:30682 Avg QP:18.40 size: 55168
x264 [info]: frame B:113641 Avg QP:19.99 size: 24625
x264 [info]: consecutive B-frames: 2.1% 2.5% 5.1% 20.0% 18.5% 35.4% 7.9% 4.8% 1.9% 0.8% 0.4% 0.4%
------------------------------------------------------------------------------------------------------------

Полное имя : The.Craft.1996.x264.BDRip.720p.0ptimus.mkv
Формат : Matroska
Версия формата : Version 2
Размер файла : 5,73 Гбайт
Продолжительность : 1 ч. 40 м.
Общий поток : 8124 Кбит/сек
Название фильма : Колдовство | The Craft [1996] -= BDRip 720p by 0ptimus =-
Дата кодирования : UTC 2014-12-26 05:36:51
Программа кодирования : mkvmerge v6.6.0 ('The Edge Of The In Between') built on Dec 1 2013 17:55:00
Библиотека кодирования : libebml v1.3.0 + libmatroska v1.4.1

Видео
Идентификатор : 1
Формат : AVC
Формат/Информация : Advanced Video Codec
Профиль формата : High@L4.1
Параметр CABAC формата : Да
Параметр ReFrames формата : 9 кадров
Идентификатор кодека : V_MPEG4/ISO/AVC
Продолжительность : 1 ч. 40 м.
Битрейт : 6075 Кбит/сек
Ширина : 1280 пикселей
Высота : 692 пикселя
Соотношение сторон : 1,85:1
Режим частоты кадров : Постоянный
Частота кадров : 23,976 кадра/сек
Цветовое пространство : YUV
Субдискретизация насыщенности : 4:2:0
Битовая глубина : 8 бит
Тип развёртки : Прогрессивная
Бит/(Пиксели*Кадры) : 0.286
Размер потока : 4,17 Гбайт (73%)
Заголовок : Rip by 0ptimus
Библиотека кодирования : x264 core 133 r2334 a3ac64b
Настройки программы : cabac=1 / ref=9 / deblock=1:-3:-3 / analyse=0x3:0x113 / me=umh / subme=11 / psy=1 / psy_rd=1.00:0.20 / mixed_ref=1 / me_range=32 / chroma_me=1 / trellis=2 / 8x8dct=1 / cqm=0 / deadzone=21,11 / fast_pskip=0 / chroma_qp_offset=-3 / threads=3 / lookahead_threads=1 / sliced_threads=0 / nr=0 / decimate=0 / interlaced=0 / bluray_compat=0 / constrained_intra=0 / bframes=11 / b_pyramid=2 / b_adapt=2 / b_bias=0 / direct=3 / weightb=1 / open_gop=0 / weightp=2 / keyint=240 / keyint_min=23 / scenecut=40 / intra_refresh=0 / rc_lookahead=40 / rc=2pass / mbtree=0 / bitrate=6075 / ratetol=1.0 / qcomp=0.60 / qpmin=0 / qpmax=69 / qpstep=4 / cplxblur=20.0 / qblur=0.5 / vbv_maxrate=50000 / vbv_bufsize=50000 / nal_hrd=none / ip_ratio=1.40 / pb_ratio=1.30 / aq=1:1.00
Язык : English
Default : Да
Forced : Да

Аудио #1
Идентификатор : 2
Формат : AC-3
Формат/Информация : Audio Coding 3
Расширение режима : CM (complete main)
Параметр Endianness формата : Big
Идентификатор кодека : A_AC3
Продолжительность : 1 ч. 40 м.
Вид битрейта : Постоянный
Битрейт : 384 Кбит/сек
Каналы : 6 каналов
Расположение каналов : Front: L C R, Side: L R, LFE
Частота : 48,0 КГц
Битовая глубина : 16 бит
Метод сжатия : С потерями
Размер потока : 277 Мбайт (5%)
Заголовок : Дублированный AC3 5.1 @ 384 kbps
Язык : Russian
Default : Да
Forced : Да

Аудио #2
Идентификатор : 3
Формат : AC-3
Формат/Информация : Audio Coding 3
Расширение режима : CM (complete main)
Параметр Endianness формата : Big
Идентификатор кодека : A_AC3
Продолжительность : 1 ч. 40 м.
Вид битрейта : Постоянный
Битрейт : 192 Кбит/сек
Каналы : 2 канала
Расположение каналов : Front: L R
Частота : 48,0 КГц
Битовая глубина : 16 бит
Метод сжатия : С потерями
Размер потока : 139 Мбайт (2%)
Заголовок : Многоголосый AC3 2.0 @ 192 kbps
Язык : Russian
Default : Нет
Forced : Нет

Аудио #3
Идентификатор : 4
Формат : AC-3
Формат/Информация : Audio Coding 3
Расширение режима : CM (complete main)
Параметр Endianness формата : Big
Идентификатор кодека : A_AC3
Продолжительность : 1 ч. 40 м.
Вид битрейта : Постоянный
Битрейт : 640 Кбит/сек
Каналы : 6 каналов
Расположение каналов : Front: L C R, Side: L R, LFE
Частота : 48,0 КГц
Битовая глубина : 16 бит
Метод сжатия : С потерями
Размер потока : 462 Мбайт (8%)
Заголовок : Авторский [Юрий Живов] AC3 5.1 @ 640 kbps
Язык : Russian
Default : Нет
Forced : Нет

Аудио #4
Идентификатор : 5
Формат : AC-3
Формат/Информация : Audio Coding 3
Расширение режима : CM (complete main)
Параметр Endianness формата : Big
Идентификатор кодека : A_AC3
Продолжительность : 1 ч. 40 м.
Вид битрейта : Постоянный
Битрейт : 192 Кбит/сек
Каналы : 2 канала
Расположение каналов : Front: L R
Частота : 48,0 КГц
Битовая глубина : 16 бит
Метод сжатия : С потерями
Размер потока : 139 Мбайт (2%)
Заголовок : Авторский [Сергей Визгунов] AC3 2.0 @ 192 kbps
Язык : Russian
Default : Нет
Forced : Нет

Аудио #5
Идентификатор : 6
Формат : AC-3
Формат/Информация : Audio Coding 3
Расширение режима : CM (complete main)
Параметр Endianness формата : Big
Идентификатор кодека : A_AC3
Продолжительность : 1 ч. 40 м.
Вид битрейта : Постоянный
Битрейт : 640 Кбит/сек
Каналы : 6 каналов
Расположение каналов : Front: L C R, Side: L R, LFE
Частота : 48,0 КГц
Битовая глубина : 16 бит
Метод сжатия : С потерями
Размер потока : 462 Мбайт (8%)
Заголовок : AC3 5.1 @ 640 kbps
Язык : English
Default : Нет
Forced : Нет

Текст #1
Идентификатор : 7
Формат : UTF-8
Идентификатор кодека : S_TEXT/UTF8
Идентификатор кодека/Информация : UTF-8 Plain Text
Язык : Russian
Default : Нет
Forced : Нет

Текст #2
Идентификатор : 8
Формат : UTF-8
Идентификатор кодека : S_TEXT/UTF8
Идентификатор кодека/Информация : UTF-8 Plain Text
Язык : English
Default : Нет
Forced : Нет

Текст #3
Идентификатор : 9
Формат : UTF-8
Идентификатор кодека : S_TEXT/UTF8
Идентификатор кодека/Информация : UTF-8 Plain Text
Заголовок : SDH
Язык : English
Default : Нет
Forced : Нет

Меню
00:00:00.000 : en:Start
00:05:12.979 : en:St. Benedict's Academy
00:13:14.669 : en:Football Practice
00:17:29.757 : en:Shopping at Lirio's
00:24:46.360 : en:Snake Vagrant
00:28:18.196 : en:A Natural Witch
00:35:04.019 : en:Picking on Rochelle
00:41:17.350 : en:Gene Therapy
00:48:42.253 : en:Field Trip
00:53:23.826 : en:Light As a Feather
01:02:23.198 : en:Laura Loses It
01:08:57.342 : en:Positive Results
01:15:36.615 : en:$175,000
01:20:25.696 : en:Glamour Spells
01:26:09.331 : en:Neither Black Nor White
01:28:29.513 : en:Invoking the Spirit



Релиз от:
загрузка...
Правила, инструкции, FAQ!!!
Торрент  Добавлен [26 дек 2014, 20:31] Скачать торрент
Скачать торрент
[ Размер 40.39 КБ / Просмотров 3 ]

Статус
Проверен 
 
Размер  7.86 ГБ
Приватный: Нет (DHT включён)
.torrent скачан  7
Как залить торрент? | Как скачать Torrent? | Как смотреть и слушать онлайн?  


     Отправить личное сообщение
   
Страница 1 из 1
Показать сообщения за:  Поле сортировки  
Начать новую тему Ответить на тему

   Похожие торренты   Автор   Ответы   Просмотры   Последнее сообщение 
В этой теме нет новых непрочитанных сообщений. Скачать торрент Проверен Колдовство / The Craft (1996) BDRip | D. P

в форуме Ужасы, Размер: 1.73 ГБ, Здоровье: 100%

Anonymous

0
24|10

93
225

26 дек 2014, 20:33

Anonymous Перейти к последнему сообщению

В этой теме нет новых непрочитанных сообщений. Скачать торрент Проверен (Progressive Rock/Art Rock) Craft - Craft (Enid-Related) - 1984, FLAC (image+.cue), lossless

в форуме Progressive & Art-Rock, Размер: 204.96 МБ, Здоровье: 0%

Anonymous

0
0|0

4
0

01 сен 2016, 17:49

Anonymous Перейти к последнему сообщению

В этой теме нет новых непрочитанных сообщений. Скачать торрент Проверен [TR24][SM][OF] Craft - Craft - 2012 (Hip-Hop)

в форуме Hi-Res stereo (Джаз и Блюз), Размер: 488.6 МБ, Здоровье: 100%

Anonymous

0
3|1

4
0

27 авг 2016, 14:53

Anonymous Перейти к последнему сообщению

В этой теме нет новых непрочитанных сообщений. Скачать торрент Проверен Valerie Peterson, Janice Fryer - (Cookie Craft / Искусство печенья + Cookie Craft Christmas / Искусство Рождественского печенья [2007/2009, PDF, ENG] Обновлено 20.12.2014г.

в форуме Кулинария, Размер: 36.72 МБ, Здоровье: 100%

Anonymous

0
5|4

10
1

19 окт 2016, 22:57

Anonymous Перейти к последнему сообщению

В этой теме нет новых непрочитанных сообщений. Скачать торрент Проверен Блеск / Shine (1996) BDRip 720p | P2, A

в форуме 720p | 1080p, Размер: 4.37 ГБ, Здоровье: 27%

Anonymous

0
9|33

65
3

19 авг 2015, 22:21

Anonymous Перейти к последнему сообщению



Сейчас этот форум просматривают: нет зарегистрированных пользователей и гости: 1


Вы не можете начинать темы
Вы не можете отвечать на сообщения
Вы не можете редактировать свои сообщения
Вы не можете удалять свои сообщения
Вы не можете добавлять вложения

Перейти:  

!ВНИМАНИЕ!
 Ресурс не предоставляет электронные версии произведений, а занимается лишь коллекционированием и каталогизацией ссылок, присылаемых и публикуемых на форуме нашими читателями. Если вы являетесь правообладателем какого-либо представленного материала и не желаете чтобы ссылка на него находилась в нашем каталоге, свяжитесь с нами и мы незамедлительно удалим её. Файлы для обмена на трекере предоставлены пользователями сайта, и администрация не несёт ответственности за их содержание. Просьба не заливать файлы, защищенные авторскими правами, а также файлы нелегального содержания!