На всех торрентах на трекере установлена скидка на скачивание в размере 100 процентов(а).
 Возможность скачивания торрента НЕ зависит от ограничений при низком ратио, низком аплоаде, требуемом ратио или требуемом аплоаде.


Начать новую тему Ответить на тему
Статистика раздачи
Размер: 8.78 ГБ | Добавлен: 25 май 2013, 21:22 | Скачали: 0
Сидеров: 0  [0 байт/сек]    Личеров: 0  [0 байт/сек]
Пред. тема | След. тема 

Автор
Сообщение

СообщениеДобавлено: 25 май 2013, 21:22 

Бэтмен и Робин

Batman & Robin

«Сила. Храбрость. Честь. И лояльность. 20 июня, это ВСЕ прибывает вместе...»




Год выпуска: 1997
Страна: США , Великобритания
Жанр: фэнтези, боевик, криминал...
Продолжительность: 02:04:53
Перевод: Профессиональный (дублированный)
Субтитры: Russian (UTF-8), English (UTF-8)

Режиссер: Джоэл Шумахер
Сценарий: Акива Голдсман, Боб Кейн
Продюсер: Питер МакГрегор-Скотт, Митчелл Е. Дотерайв, Уильям М. Элвин, ...
Оператор: Стивен Голдблатт
Композитор: Эллиот Голденталь
Художник: Барбара Линг, Ричард Холлэнд, Джофф Хаббард, ...
Монтаж: Марк Стивенс, Дэннис Вирклер

В ролях: Арнольд Шварценеггер / Arnold Schwarzenegger (Mr. Freeze / Dr. Victor Fries, $ 25 000 000 ), Джордж Клуни / George Clooney (Batman / Bruce Wayne, $ 10 000 000 ), Крис О’Доннелл / Chris O'Donnell (Robin / Dick Grayson), Ума Турман / Uma Thurman (Poison Ivy / Dr. Pamela Isley, $ 5 000 000 ), Алисия Сильверстоун / Alicia Silverstone (Batgirl / Barbara Wilson, $ 1 500 000 ), Майкл Гоф / Michael Gough (Alfred Pennyworth), Пэт Хингл / Pat Hingle (Commissioner James Gordon), Джон Гловер / John Glover (Dr. Jason Woodrue)


Описание: Над Готэмом вновь нависла угроза: злодей-морозилка Мистер Фриз и психованная любительница растений по кличке Ядовитый Плющ решают уничтожить город. Единственные, кто могут остановить злодеев — Бэтмен и Робин, однако у этих супергероев возникают разногласия…


Бюджет: $125 000 000
Сборы в США: $107 325 195
Сборы в мире: + $130 881 927 = $238 207 122
Зрители: США 23.4 млн , Великобритания 3.84 млн , Франция 1.32 млн
Премьера (мир): 12 июня 1997, ...
Релиз на DVD: 14 апреля 2011, «ВС трейд», ...
Рейтинг MPAA: Детям до 13 лет просмотр не желателен




Качество: BDRip.1080р
Формат: MKV
Видео кодек: AVC
Аудио кодеk: AC3
Видео: 1920x1080 (16:9), 23.976 fps, AVC, 8 285 Kbps
Аудио #1: AC3, 448 Kbps, 48.0 KHz, 6 ch (Дубляж - СЕЕ)
Аудио #2: AC3, 192 Kbps, 48.0 KHz, 2 ch (MVO - РТР)
Аудио #3: AC3, 384 Kbps, 48.0 KHz, 6 ch (AVO - Гаврилов)
Аудио #4: AC3, 192 Kbps, 48.0 KHz, 2 ch (AVO - Живов)
Аудио #5: AC3, 192 Kbps, 48.0 KHz, 2 ch (AVO - Антонов)
Аудио #6: AC3, 384 Kbps, 48.0 KHz, 6 ch (English)




Лог:
- x264 [info]: frame I:1221 Avg QP:17.15 size:153907
- x264 [info]: frame P:55225 Avg QP:19.70 size: 72625
- x264 [info]: frame B:123227 Avg QP:21.83 size: 28803

General
Complete name : Bаtmаn.1997.BDRip.1080p.mkv
Format : Matroska
File size : 8.78 GiB
Duration : 2h 4mn
Overall bit rate : 10.1 Mbps
Encoded date : UTC 2013-05-25 03:06:35
Writing application : mkvmerge v6.1.0 ('Old Devil') built on Mar 2 2013 14:32:37
Writing library : libebml v1.3.0 + libmatroska v1.4.0

Video
ID : 1
Format : AVC
Format/Info : Advanced Video Codec
Format profile : High@L4.1
Format settings, CABAC : Yes
Format settings, ReFrames : 4 frames
Muxing mode : Container profile=Unknown@4.1
Codec ID : V_MPEG4/ISO/AVC
Duration : 2h 4mn
Bit rate : 8 285 Kbps
Width : 1 920 pixels
Height : 1 080 pixels
Display aspect ratio : 16:9
Frame rate : 23.976 fps
Color space : YUV
Chroma subsampling : 4:2:0
Bit depth : 8 bits
Scan type : Progressive
Bits/(Pixel*Frame) : 0.167
Stream size : 7.04 GiB (80%)
Writing library : x264 core 133 r2334 a3ac64b
Encoding settings : cabac=1 / ref=4 / deblock=1:-1:-1 / analyse=0x3:0x133 / me=umh / subme=10 / psy=1 / psy_rd=1.00:0.00 / mixed_ref=1 / me_range=32 / chroma_me=1 / trellis=2 / 8x8dct=1 / cqm=0 / deadzone=21,11 / fast_pskip=0 / chroma_qp_offset=-2 / threads=6 / lookahead_threads=1 / sliced_threads=0 / nr=0 / decimate=1 / interlaced=0 / bluray_compat=0 / constrained_intra=0 / bframes=8 / b_pyramid=2 / b_adapt=2 / b_bias=0 / direct=3 / weightb=1 / open_gop=0 / weightp=2 / keyint=240 / keyint_min=24 / scenecut=40 / intra_refresh=0 / rc_lookahead=50 / rc=2pass / mbtree=0 / bitrate=8285 / ratetol=2.0 / qcomp=1.00 / qpmin=0 / qpmax=51 / qpstep=4 / cplxblur=20.0 / qblur=0.5 / vbv_maxrate=38000 / vbv_bufsize=30000 / nal_hrd=none / ip_ratio=1.40 / pb_ratio=1.30 / aq=1:1.00
Color primaries : BT.709-5, BT.1361, IEC 61966-2-4, SMPTE RP177
Transfer characteristics : BT.709-5, BT.1361
Matrix coefficients : BT.709-5, BT.1361, IEC 61966-2-4 709, SMPTE RP177

Audio #1
ID : 2
Format : AC-3
Format/Info : Audio Coding 3
Mode extension : CM (complete main)
Codec ID : A_AC3
Duration : 2h 4mn
Bit rate mode : Constant
Bit rate : 448 Kbps
Channel(s) : 6 channels
Channel positions : Front: L C R, Side: L R, LFE
Sampling rate : 48.0 KHz
Bit depth : 16 bits
Stream size : 400 MiB (4%)
Title : Дубляж - СЕЕ
Language : Russian

Audio #2
ID : 3
Format : AC-3
Format/Info : Audio Coding 3
Mode extension : CM (complete main)
Codec ID : A_AC3
Duration : 2h 4mn
Bit rate mode : Constant
Bit rate : 192 Kbps
Channel(s) : 2 channels
Channel positions : Front: L R
Sampling rate : 48.0 KHz
Bit depth : 16 bits
Stream size : 172 MiB (2%)
Title : MVO - РТР
Language : Russian

Audio #3
ID : 4
Format : AC-3
Format/Info : Audio Coding 3
Mode extension : CM (complete main)
Codec ID : A_AC3
Duration : 2h 4mn
Bit rate mode : Constant
Bit rate : 384 Kbps
Channel(s) : 6 channels
Channel positions : Front: L C R, Side: L R, LFE
Sampling rate : 48.0 KHz
Bit depth : 16 bits
Stream size : 343 MiB (4%)
Title : AVO - Гаврилов
Language : Russian

Audio #4
ID : 5
Format : AC-3
Format/Info : Audio Coding 3
Mode extension : CM (complete main)
Codec ID : A_AC3
Duration : 2h 4mn
Bit rate mode : Constant
Bit rate : 192 Kbps
Channel(s) : 2 channels
Channel positions : Front: L R
Sampling rate : 48.0 KHz
Bit depth : 16 bits
Stream size : 172 MiB (2%)
Title : AVO - Живов
Language : Russian

Audio #5
ID : 6
Format : AC-3
Format/Info : Audio Coding 3
Mode extension : CM (complete main)
Codec ID : A_AC3
Duration : 2h 4mn
Bit rate mode : Constant
Bit rate : 192 Kbps
Channel(s) : 2 channels
Channel positions : Front: L R
Sampling rate : 48.0 KHz
Bit depth : 16 bits
Stream size : 172 MiB (2%)
Title : AVO - Антонов
Language : Russian

Audio #6
ID : 7
Format : AC-3
Format/Info : Audio Coding 3
Mode extension : CM (complete main)
Codec ID : A_AC3
Duration : 2h 4mn
Bit rate mode : Constant
Bit rate : 384 Kbps
Channel(s) : 6 channels
Channel positions : Front: L C R, Side: L R, LFE
Sampling rate : 48.0 KHz
Bit depth : 16 bits
Stream size : 343 MiB (4%)

Text #1
ID : 8
Format : UTF-8
Codec ID : S_TEXT/UTF8
Codec ID/Info : UTF-8 Plain Text
Language : Russian

Text #2
ID : 9
Format : UTF-8
Codec ID : S_TEXT/UTF8
Codec ID/Info : UTF-8 Plain Text


★ Известно, что в предыдущем фильме Двуликий погибает, однако, когда Бэйн врывается в комнату «Личные вещи заключённых» в Аркхеме, там рядом с костюмом Загадочника висит костюм бывшего прокурора Готема.

★ Также на роль Мистера Фриза претендовали Халк Хоган и Энтони Хопкинс.

★ На роль, сыгранную Умой Турман претендовали Джулия Робертс, Деми Мур и Шэрон Стоун.

★ Вторым претендентом Джоэла Шумахера на роль мистера Фриза был Сильвестр Сталлоне.

★ Арнольд Шварценеггер нарушил своё обещание никогда больше не играть злодеев, данное во время съёмок фильма «Терминатор 2: Судный день».




Релиз группы:
загрузка...
Правила, инструкции, FAQ!!!
Торрент  Добавлен [25 май 2013, 21:22] Скачать торрент
Скачать торрент
[ Размер 44.36 КБ / Просмотров 5 ]

Статус  
 
Размер  8.78 ГБ
Приватный: Нет (DHT включён)
.torrent скачан  0
Как залить торрент? | Как скачать Torrent? | Как смотреть и слушать онлайн?  


     Отправить личное сообщение
   
Страница 1 из 1
Показать сообщения за:  Поле сортировки  
Начать новую тему Ответить на тему

   Похожие торренты   Автор   Ответы   Просмотры   Последнее сообщение 
В этой теме нет новых непрочитанных сообщений. Скачать торрент Бэтмен и Робин / Batman & Robin (Джоэл Шумахер / Joel Schumacher) [1997, Фэнтези, боевик, криминал, BDRip] Dub (Мост Видео) + Dub (Варус Видео)

в форуме Фантастика, Фэнтези, Размер: 1.46 ГБ, Здоровье: 100%

Anonymous

0
56|19

147
0

01 фев 2014, 19:07

Anonymous Перейти к последнему сообщению

В этой теме нет новых непрочитанных сообщений. Скачать торрент Проверен Бэтмен: Нападение на Аркхэм / Batman: Assault on Arkham (2014) BDRip 720p | Студия Saint Sound

в форуме Зарубежные мультфильмы (HD Video), Размер: 1.35 ГБ, Здоровье: 100%

Anonymous

0
34|3

120
124

01 ноя 2014, 13:09

Anonymous Перейти к последнему сообщению

В этой теме нет новых непрочитанных сообщений. Скачать торрент Проверен Бэтмен против Супермена: На заре справедливости / Batman v Superman: Dawn of Justice (2016) BDRip 720p | Расширенная версия

в форуме 720p | 1080p, Размер: 8.56 ГБ, Здоровье: 100%

Гость

0
631|172

61
734

13 июл 2016, 00:19

Гость Перейти к последнему сообщению

В этой теме нет новых непрочитанных сообщений. Скачать торрент Проверен Бэтмен: Начало / Batman Begins (Кристофер Нолан / Christopher Nolan) [2005, США, боевик, драма, криминал, BDRip, 480p] DUB, MVO, Original + sub (rus, eng)

в форуме Фильмы для iPod, iPhone, iPad, Размер: 1.76 ГБ, Здоровье: 100%

Гость

0
56|19

81
0

11 май 2015, 01:26

Гость Перейти к последнему сообщению

В этой теме нет новых непрочитанных сообщений. Скачать торрент Бэтмен - Коллекция / Batman - Collection (1989-2012) HDRip-AVC

в форуме Антологии, Размер: 23.7 ГБ, Здоровье: 100%

Anonymous

0
92|16

227
5402

09 янв 2014, 00:01

Anonymous Перейти к последнему сообщению



Сейчас этот форум просматривают: нет зарегистрированных пользователей и гости: 1


Вы не можете начинать темы
Вы не можете отвечать на сообщения
Вы не можете редактировать свои сообщения
Вы не можете удалять свои сообщения
Вы не можете добавлять вложения

Перейти:  

!ВНИМАНИЕ!
 Ресурс не предоставляет электронные версии произведений, а занимается лишь коллекционированием и каталогизацией ссылок, присылаемых и публикуемых на форуме нашими читателями. Если вы являетесь правообладателем какого-либо представленного материала и не желаете чтобы ссылка на него находилась в нашем каталоге, свяжитесь с нами и мы незамедлительно удалим её. Файлы для обмена на трекере предоставлены пользователями сайта, и администрация не несёт ответственности за их содержание. Просьба не заливать файлы, защищенные авторскими правами, а также файлы нелегального содержания!