На всех торрентах на трекере установлена скидка на скачивание в размере 100 процентов(а).
 Возможность скачивания торрента НЕ зависит от ограничений при низком ратио, низком аплоаде, требуемом ратио или требуемом аплоаде.


Начать новую тему Ответить на тему
Статистика раздачи
Размер: 4.11 ГБ | Добавлен: 25 май 2013, 20:55 | Скачали: 0
Сидеров: 0  [0 байт/сек]    Личеров: 0  [0 байт/сек]
Пред. тема | След. тема 

Автор
Сообщение

СообщениеДобавлено: 25 май 2013, 20:55 

Название: Поединок в Диггстауне
Оригинальное название: Diggstown
Год выхода: 1992
Жанр: драма, криминал, спорт
Режиссер: Майкл Ритчи

В фильме снимались: Джеймс Вудс, Луис Госсет мл., Брюс Дерн, Оливер Платт, Хэзер Грэм, Рэндал «Текс» Кобб, Томас Уилсон Браун, Дуан Дэвис, Дэвид Фреско, Уилли Грин, ...

Вкратце:
Даже попав в тюремные застенки, отпетый мошенник не теряет времени даром, зарабатывая капитал на организации побегов. Оказавшись на свободе, он вместе со своим напарником организует тотализатор на боксерских поединках…



Страна: США
Продолжительность: 01:33:38
Перевод:
Профессиональный (многоголосый закадровый)

Формат: mkv
Кодек: h.264
Качество: HDTVRip 720p
Видео: 1280x688 (1.85:1), 25.000 fps, 6100 Kbps
Аудио: AC3, 192 Kbps, 48.0 KHz, 2 ch (Rus) MVO




Полное имя : Diggstown.1992.HDTV.720p.x264.mkv
Формат : Matroska
Версия формата : Version 4 / Version 2
Размер файла : 4,11 Гбайт
Продолжительность : 1 ч. 33 м.
Общий поток : 6292 Кбит/сек
Дата кодирования : UTC 2013-04-16 09:42:56
Программа кодирования : mkvmerge v6.1.0 ('Old Devil') built on Mar 2 2013 14:32:37
Библиотека кодирования : libebml v1.3.0 + libmatroska v1.4.0

Видео
Идентификатор : 1
Формат : AVC
Формат/Информация : Advanced Video Codec
Профиль формата : High@L4.1
Параметр CABAC формата : Да
Параметр ReFrames формата : 9 кадров
Идентификатор кодека : V_MPEG4/ISO/AVC
Продолжительность : 1 ч. 33 м.
Битрейт : 6100 Кбит/сек
Ширина : 1280 пикселей
Высота : 688 пикселей
Соотношение сторон : 1,85:1
Режим частоты кадров : Постоянный
Частота кадров : 25,000 кадров/сек
Цветовое пространство : YUV
Субдискретизация насыщенности : 4:2:0
Битовая глубина : 8 бит
Тип развёртки : Прогрессивная
Бит/(Пиксели*Кадры) : 0.277
Размер потока : 3,91 Гбайт (95%)
Заголовок : Eng
Библиотека кодирования : x264 core 130 r2273 b3065e6
Настройки программы : cabac=1 / ref=9 / deblock=1:-3:-3 / analyse=0x3:0x113 / me=umh / subme=10 / psy=1 / psy_rd=1.00:0.15 / mixed_ref=1 / me_range=24 / chroma_me=1 / trellis=2 / 8x8dct=1 / cqm=0 / deadzone=21,11 / fast_pskip=1 / chroma_qp_offset=-3 / threads=2 / lookahead_threads=1 / sliced_threads=0 / nr=0 / decimate=1 / interlaced=0 / bluray_compat=0 / constrained_intra=0 / bframes=7 / b_pyramid=2 / b_adapt=2 / b_bias=0 / direct=3 / weightb=1 / open_gop=0 / weightp=2 / keyint=250 / keyint_min=25 / scenecut=40 / intra_refresh=0 / rc_lookahead=40 / rc=2pass / mbtree=1 / bitrate=6100 / ratetol=1.0 / qcomp=0.60 / qpmin=0 / qpmax=69 / qpstep=4 / cplxblur=20.0 / qblur=0.5 / ip_ratio=1.40 / aq=1:1.00
Язык : English
Default : Да
Forced : Нет

Аудио
Идентификатор : 2
Формат : AC-3
Формат/Информация : Audio Coding 3
Расширение режима : CM (complete main)
Параметр Endianness формата : Big
Идентификатор кодека : A_AC3
Продолжительность : 1 ч. 33 м.
Вид битрейта : Постоянный
Битрейт : 192 Кбит/сек
Каналы : 2 канала
Расположение каналов : Front: L R
Частота : 48,0 КГц
Битовая глубина : 16 бит
Метод сжатия : С потерями
Размер потока : 129 Мбайт (3%)
Заголовок : Rus MVO
Язык : Russian
Default : Да
Forced : Нет
загрузка...
Правила, инструкции, FAQ!!!
Торрент  Добавлен [25 май 2013, 20:55] Скачать торрент
Скачать торрент
[ Размер 10.81 КБ / Просмотров 10 ]

Статус  
 
Размер  4.11 ГБ
Приватный: Нет (DHT включён)
.torrent скачан  0
Как залить торрент? | Как скачать Torrent? | Как смотреть и слушать онлайн?  


     Отправить личное сообщение
   
Страница 1 из 1
Показать сообщения за:  Поле сортировки  
Начать новую тему Ответить на тему

   Похожие торренты   Автор   Ответы   Просмотры   Последнее сообщение 
В этой теме нет новых непрочитанных сообщений. Скачать торрент Проверен В опасности / Out on a Limb (1992) HDTVRip [720p]

в форуме 720p | 1080p, Размер: 2.77 ГБ, Здоровье: 100%

Anonymous

0
47|1

21
0

13 ноя 2014, 00:15

Anonymous Перейти к последнему сообщению

В этой теме нет новых непрочитанных сообщений. Скачать торрент Проверен МакSим - Полная дискография и видеография (2006-2015) FLAC, MP3, HDTVRip, HDTVRip 720p, HDTVRip 1080p

в форуме Дискографии (Отечественные), Размер: 24.2 ГБ, Здоровье: 100%

Гость

0
273|150

300
23

20 дек 2015, 12:22

Гость Перейти к последнему сообщению

В этой теме нет новых непрочитанных сообщений. Скачать торрент Проверен Linkin Park - Rock in Rio 2012 HDTVRip 720p [2012, Alternative - Rock, HDTVRip 720p]

в форуме Концерты (HD-Video), Размер: 4.47 ГБ, Здоровье: 100%

Anonymous

0
1|0

3
0

23 окт 2016, 11:09

Anonymous Перейти к последнему сообщению

В этой теме нет новых непрочитанных сообщений. Скачать торрент Проверен Daughtry - Live From California [HDTVRip 720p 22.01.2009] [2009, Rock, HDTVRip]

в форуме Концерты (HD-Video), Размер: 2.17 ГБ, Здоровье: 100%

Anonymous

0
2|1

3
0

23 окт 2016, 13:44

Anonymous Перейти к последнему сообщению

В этой теме нет новых непрочитанных сообщений. Скачать торрент Проверен The Bangles - Dancing with the Stars (2011-10-17) HDTVRip 720p [2011, Rock/Pop, HDTVRip]

в форуме Концерты (HD-Video), Размер: 291.66 МБ, Здоровье: 100%

Anonymous

0
1|0

4
0

23 окт 2016, 13:17

Anonymous Перейти к последнему сообщению



Сейчас этот форум просматривают: нет зарегистрированных пользователей и гости: 3


Вы не можете начинать темы
Вы не можете отвечать на сообщения
Вы не можете редактировать свои сообщения
Вы не можете удалять свои сообщения
Вы не можете добавлять вложения

Перейти:  

!ВНИМАНИЕ!
 Ресурс не предоставляет электронные версии произведений, а занимается лишь коллекционированием и каталогизацией ссылок, присылаемых и публикуемых на форуме нашими читателями. Если вы являетесь правообладателем какого-либо представленного материала и не желаете чтобы ссылка на него находилась в нашем каталоге, свяжитесь с нами и мы незамедлительно удалим её. Файлы для обмена на трекере предоставлены пользователями сайта, и администрация не несёт ответственности за их содержание. Просьба не заливать файлы, защищенные авторскими правами, а также файлы нелегального содержания!