На всех торрентах на трекере установлена скидка на скачивание в размере 100 процентов(а).
 Возможность скачивания торрента НЕ зависит от ограничений при низком ратио, низком аплоаде, требуемом ратио или требуемом аплоаде.


Начать новую тему Ответить на тему
Статистика раздачи
Размер: 4.37 ГБ | Добавлен: 25 май 2013, 20:13 | Скачали: 0
Сидеров: 0  [0 байт/сек]    Личеров: 0  [0 байт/сек]
Пред. тема | След. тема 

Автор
Сообщение

СообщениеДобавлено: 25 май 2013, 20:13 

Название: Убойные каникулы
Оригинальное название: Tucker & Dale vs Evil
Год выхода: 2010
Жанр: ужасы, комедия
Режиссер: Эли Крэйг

В фильме снимались: Тайлер Лэбин, Алан Тьюдик, Катрина Боуден, Джесси Мосс, Филип Грэйнджер, Брэндон Джей МакЛарен, Кристи Лэйн, Челан Симмонс, Трэвис Нельсон, Алекс Арсено

Вкратце: Группа студентов колледжа отправляется за город, чтобы вовсю оторваться на выходных: попить пивка, поплавать в озере и подышать чистым лесным воздухом. Но уже в первый день они сталкиваются с неотесанными фермерами Такером и Дэйлом, также решившими как следует оттянуться на природе. Приняв этих диковатых, но, в сущности, симпатичных ребят за «злобных местных», горожане решают дать деревенщине жесткий отпор. Но с каждым их шагом становится только хуже…



Выпущено: Reliance Motion Picture Company
Продолжительность: 01:28:34
Перевод: Дублированный

Формат: mkv
Кодек: x264
Качество: BDRip (источник: Blu-ray Disc)
Видео: 1920x816 (2,35:1), 23.976 fps, 6617 kbps
Звук: 48 kHz, AC-3, 6 ch, 448 kbps


Скриншоты

Общее
Уникальный идентификатор : 233815515496570381024715525492987716500 (0xAFE73AF3597705C68F32C6B7D4C4E394)
Полное имя : Tucker.&.Dale.vs.Evil.2010.BDRip.1080p.Rus.mkv
Формат : Matroska
Версия формата : Version 2
Размер файла : 4,37 Гбайт
Продолжительность : 1 ч. 28 м.
Общий поток : 7064 Кбит/сек
Дата кодирования : UTC 2011-07-14 19:15:42
Программа кодирования : mkvmerge v4.0.0 ('The Stars were mine') сборка от Jun 6 2010 16:18:42
Библиотека кодирования : libebml v1.0.0 + libmatroska v1.0.0

Видео
Идентификатор : 1
Формат : AVC
Формат/Информация : Advanced Video Codec
Профиль формата : High@L4.1
Параметр CABAC формата : Да
Параметр ReFrames формата : 5 кадров
Идентификатор кодека : V_MPEG4/ISO/AVC
Продолжительность : 1 ч. 28 м.
Битрейт : 6617 Кбит/сек
Ширина : 1920 пикселей
Высота : 816 пикселей
Соотношение сторон : 2,35:1
Частота кадров : 23,976 кадра/сек
Цветовое пространство : YUV
Субдискретизация насыщенности : 4:2:0
Битовая глубина : 8 бит
Тип развёртки : Прогрессивная
Бит/(Пиксели*Кадры) : 0.176
Размер потока : 4,01 Гбайт (92%)
Библиотека кодирования : x264 core 116 r2019 9cc407d
Настройки программы : cabac=1 / ref=5 / deblock=1:0:0 / analyse=0x3:0x133 / me=umh / subme=10 / psy=1 / psy_rd=1.00:0.10 / mixed_ref=1 / me_range=32 / chroma_me=1 / trellis=2 / 8x8dct=1 / cqm=0 / deadzone=21,11 / fast_pskip=0 / chroma_qp_offset=-3 / threads=12 / sliced_threads=0 / nr=0 / decimate=1 / interlaced=0 / bluray_compat=0 / constrained_intra=0 / bframes=3 / b_pyramid=2 / b_adapt=2 / b_bias=0 / direct=3 / weightb=1 / open_gop=0 / weightp=2 / keyint=250 / keyint_min=23 / scenecut=40 / intra_refresh=0 / rc_lookahead=60 / rc=2pass / mbtree=1 / bitrate=6617 / ratetol=1.0 / qcomp=0.60 / qpmin=0 / qpmax=69 / qpstep=4 / cplxblur=20.0 / qblur=0.5 / ip_ratio=1.40 / aq=1:1.00
Язык : English

Аудио
Идентификатор : 2
Формат : AC-3
Формат/Информация : Audio Coding 3
Расширение режима : CM (complete main)
Идентификатор кодека : A_AC3
Продолжительность : 1 ч. 28 м.
Вид битрейта : Постоянный
Битрейт : 448 Кбит/сек
Каналы : 6 каналов
Расположение каналов : Front: L C R, Side: L R, LFE
Частота : 48,0 КГц
Битовая глубина : 16 бит
Метод сжатия : С потерями
Размер потока : 284 Мбайт (6%)
Язык : Russian
x264 [info]: frame I:1409 Avg QP:13.35 size:198592
x264 [info]: frame P:37719 Avg QP:16.15 size: 64271
x264 [info]: frame B:88288 Avg QP:18.88 size: 19141
загрузка...
Правила, инструкции, FAQ!!!
Торрент  Добавлен [25 май 2013, 20:13] Скачать торрент
Скачать торрент
[ Размер 22.28 КБ / Просмотров 10 ]

Статус  
 
Размер  4.37 ГБ
Приватный: Нет (DHT включён)
.torrent скачан  0
Как залить торрент? | Как скачать Torrent? | Как смотреть и слушать онлайн?  


     Отправить личное сообщение
   
Страница 1 из 1
Показать сообщения за:  Поле сортировки  
Начать новую тему Ответить на тему

   Похожие торренты   Автор   Ответы   Просмотры   Последнее сообщение 
В этой теме нет новых непрочитанных сообщений. Скачать торрент Проверен [MP4 640x360] Убойные каникулы / Tucker & Dale vs Evil (2010) DVDRip [Nokia s60v5]

в форуме Видео для смартфонов и КПК, Размер: 702.16 МБ, Здоровье: ???%

Anonymous

0
0|1

40
0

25 окт 2014, 23:18

Anonymous Перейти к последнему сообщению

В этой теме нет новых непрочитанных сообщений. Скачать торрент Проверен Каникулы мечты / What We Did on Our Holiday (2014) BDRip 1080p | Лицензия

в форуме 720p | 1080p, Размер: 8.01 ГБ, Здоровье: 100%

Гость

0
122|69

151
106

19 авг 2015, 23:39

Гость Перейти к последнему сообщению

В этой теме нет новых непрочитанных сообщений. Скачать торрент Проверен (Surf Rock) [LP] [24/96] Dick Dale - Rock Out with Dick Dale & His Del-Tones (Live at Ciro's)(1965) - 2010, FLAC (tracks)

в форуме Зарубежный рок (оцифровки), Размер: 633.65 МБ, Здоровье: 0%

Anonymous

0
0|0

1
0

25 авг 2016, 21:27

Anonymous Перейти к последнему сообщению

В этой теме нет новых непрочитанных сообщений. Скачать торрент Проверен Крякнутые каникулы в 3Д / Quackerz 3D (Виктор Лакисов / Viktor Lakisov) [2016, мультфильм, комедия, приключения, семейный, BDrip, 1080p] OverUnder / Вертикальная стереопара

в форуме 3D Мультфильмы, Размер: 18.05 ГБ, Здоровье: 0%

Anonymous

0
0|0

8
0

07 сен 2016, 18:07

Anonymous Перейти к последнему сообщению

В этой теме нет новых непрочитанных сообщений. Скачать торрент Проверен Избави нас от лукавого / Deliver Us from Evil (2014) BDRip 1080p | Чистый звук

в форуме 720p | 1080p, Размер: 6.16 ГБ, Здоровье: 100%

Anonymous

0
1328|92

30
9635

15 окт 2014, 01:05

Anonymous Перейти к последнему сообщению



Сейчас этот форум просматривают: нет зарегистрированных пользователей и гости: 1


Вы не можете начинать темы
Вы не можете отвечать на сообщения
Вы не можете редактировать свои сообщения
Вы не можете удалять свои сообщения
Вы не можете добавлять вложения

Перейти:  

!ВНИМАНИЕ!
 Ресурс не предоставляет электронные версии произведений, а занимается лишь коллекционированием и каталогизацией ссылок, присылаемых и публикуемых на форуме нашими читателями. Если вы являетесь правообладателем какого-либо представленного материала и не желаете чтобы ссылка на него находилась в нашем каталоге, свяжитесь с нами и мы незамедлительно удалим её. Файлы для обмена на трекере предоставлены пользователями сайта, и администрация не несёт ответственности за их содержание. Просьба не заливать файлы, защищенные авторскими правами, а также файлы нелегального содержания!