На всех торрентах на трекере установлена скидка на скачивание в размере 100 процентов(а).
 Возможность скачивания торрента НЕ зависит от ограничений при низком ратио, низком аплоаде, требуемом ратио или требуемом аплоаде.


Начать новую тему Ответить на тему
Статистика раздачи
Размер: 6.1 ГБ | Добавлен: 24 май 2013, 17:13 | Скачали: 0
Сидеров: 0  [0 байт/сек]    Личеров: 0  [0 байт/сек]
Пред. тема | След. тема 

Автор
Сообщение

СообщениеДобавлено: 24 май 2013, 17:13 

Название: Филадельфия
Оригинальное название: Philadelphia
Год выпуска: 1993
Жанр: Драма
Выпущено: США, Clinica Estetico Ltd., TriStar Pictures
Режиссер: Джонатан Демме

В фильме снимались: Том Хэнкс, Дензел Вашингтон, Рон Вотер, Джейсон Робардс, Антонио Бандерас, Брэдли Уитфорд, Лиза Саммерур, Джои Перилло, Чарльз Нэпьер, Роджер Корман, Роберта Максвелл, Базз Килман, Карен Финли, Дэниэл Чэпман, Марк Соренсен мл., Джеффри Уильямсон, Чарльз Гленн, Анна Дивер Смит, Стефани Рот, Лиза Талерико, Джоэнн Вудворд, Роберт Риджли, Чандра Уилсон, Форд Вилер, Дэвид Дрэйк, Питер Джейкобс, Пол Лэзар, Фредди Фокс, Пол Мур, Уоррен Миллер, Лоурен Розелли, Джейн Мур, Билл Роу, Глен Хартелл, Трейси Уолтер, Ричард Эрлих, Энн Дауд, Пег Френч, Энн Ховард, Джон Бедфорд Ллойд, Роберт В. Кастл, Молли Хикок, Дэн Олмстед, Элизабет Роби, Адам ЛеФевр, Гари Гоэцман

Вкратце: Два главных героя не похожи, как белое и чёрное. Их разделяет цвет кожи, общественное положение, сексуальная ориентация, смертельная болезнь. Но каждый служит закону и готов бороться против любой несправедливости. Том Хэнкс и Дэнзел Вашингтон - в драматической истории смертельно больного, но не отчаявшегося, человека. Человека, который верил в справедливость.

Качество: ВDRip 720p
Формат: mkv
Продолжительность: 02:05:27

Видео: MPEG-4 AVC, 5300 Кбит/с, 1280x690
Аудио 1: русский, 48 kHz, AC3, 6 ch, 448 kbps avg, [Дублированный]
Аудио 2: русский, 48 kHz, AC3, 2 ch, 192 kbps avg, ОРТ [Профессиональный многоголосый]
Аудио 3: русский, 48 kHz, AC3, 2 ch, 192 kbps avg, НТВ [Профессиональный двухголосый]
Аудио 4: русский, 48 kHz, AC3, 2 ch, 192 kbps avg, Андрей Гаврилов [Авторский]


Аудио: английский, 48 kHz, AC3, 6 ch, 640 kbps avg, [Оригинал]
Субтитры: русские
Субтитры: английские





Общее
Полное имя : E:VideoFiladelfia.1993.x264.BDRip.720pFiladelfia.1993.eng.srt
Размер файла : 142 Кбайт

Общее
Полное имя : E:VideoFiladelfia.1993.x264.BDRip.720pFiladelfia.1993.Original.eng.ac3
Формат : AC-3
Формат/Информация : Audio Coding 3
Размер файла : 574 Мбайт
Продолжительность : 2 ч. 5 м.
Режим общего битрейта : Постоянный
Общий поток : 640 Кбит/сек

Аудио
Формат : AC-3
Формат/Информация : Audio Coding 3
Расширение режима : CM (complete main)
Параметр Endianness формата : Big
Продолжительность : 2 ч. 5 м.
Вид битрейта : Постоянный
Битрейт : 640 Кбит/сек
Каналы : 6 каналов
Расположение каналов : Front: L C R, Side: L R, LFE
Частота : 48,0 КГц
Битовая глубина : 16 бит
Метод сжатия : С потерями
Размер потока : 574 Мбайт (100%)

Общее
Полное имя : E:VideoFiladelfia.1993.x264.BDRip.720pFiladelfia.1993.rus.srt
Размер файла : 103 Кбайт

Общее
Уникальный идентификатор : 237333363771231531607420348777142232023 (0xB28CBE42F085D83A9FDA3138C25123D7)
Полное имя : E:VideoFiladelfia.1993.x264.BDRip.720pFiladelfia.1993.x264.BDRip.720p.mkv
Формат : Matroska
Версия формата : Version 4 / Version 2
Размер файла : 5,54 Гбайт
Продолжительность : 2 ч. 5 м.
Общий поток : 6324 Кбит/сек
Название фильма : Филадельфия / Philadelphia / 1993 / BDRip -- STarankov
Дата кодирования : UTC 2010-02-22 21:41:31
Программа кодирования : mkvmerge v5.9.0 ('On The Loose') built on Dec 9 2012 15:37:01
Библиотека кодирования : libebml v1.3.0 + libmatroska v1.4.0

Видео
Идентификатор : 1
Формат : AVC
Формат/Информация : Advanced Video Codec
Профиль формата : High@L4.1
Параметр CABAC формата : Да
Параметр ReFrames формата : 9 кадров
Идентификатор кодека : V_MPEG4/ISO/AVC
Продолжительность : 2 ч. 5 м.
Битрейт : 5300 Кбит/сек
Ширина : 1280 пикселей
Высота : 690 пикселей
Соотношение сторон : 1,85:1
Режим частоты кадров : Постоянный
Частота кадров : 23,976 кадра/сек
Цветовое пространство : YUV
Субдискретизация насыщенности : 4:2:0
Битовая глубина : 8 бит
Тип развёртки : Прогрессивная
Бит/(Пиксели*Кадры) : 0.250
Размер потока : 4,53 Гбайт (82%)
Библиотека кодирования : x264 core 130 r2273 b3065e6
Настройки программы : cabac=1 / ref=9 / deblock=1:-1:-1 / analyse=0x3:0x113 / me=umh / subme=9 / psy=1 / psy_rd=1.00:0.15 / mixed_ref=1 / me_range=24 / chroma_me=1 / trellis=2 / 8x8dct=1 / cqm=0 / deadzone=21,11 / fast_pskip=0 / chroma_qp_offset=-3 / threads=6 / lookahead_threads=1 / sliced_threads=0 / nr=0 / decimate=0 / interlaced=0 / bluray_compat=0 / constrained_intra=0 / bframes=16 / b_pyramid=2 / b_adapt=2 / b_bias=0 / direct=3 / weightb=0 / open_gop=0 / weightp=2 / keyint=230 / keyint_min=23 / scenecut=40 / intra_refresh=0 / rc=2pass / mbtree=0 / bitrate=5300 / ratetol=1.0 / qcomp=0.60 / qpmin=0 / qpmax=69 / qpstep=4 / cplxblur=20.0 / qblur=0.5 / ip_ratio=1.40 / pb_ratio=1.30 / aq=1:1.00
Язык : English
Default : Да
Forced : Нет

Аудио #1
Идентификатор : 2
Формат : AC-3
Формат/Информация : Audio Coding 3
Расширение режима : CM (complete main)
Параметр Endianness формата : Big
Идентификатор кодека : A_AC3
Продолжительность : 2 ч. 5 м.
Вид битрейта : Постоянный
Битрейт : 448 Кбит/сек
Каналы : 6 каналов
Расположение каналов : Front: L C R, Side: L R, LFE
Частота : 48,0 КГц
Битовая глубина : 16 бит
Метод сжатия : С потерями
Размер потока : 402 Мбайт (7%)
Заголовок : DUB
Язык : Russian
Default : Да
Forced : Нет

Аудио #2
Идентификатор : 3
Формат : AC-3
Формат/Информация : Audio Coding 3
Расширение режима : CM (complete main)
Параметр Endianness формата : Big
Идентификатор кодека : A_AC3
Продолжительность : 2 ч. 5 м.
Вид битрейта : Постоянный
Битрейт : 192 Кбит/сек
Каналы : 2 канала
Расположение каналов : Front: L R
Частота : 48,0 КГц
Битовая глубина : 16 бит
Метод сжатия : С потерями
Размер потока : 172 Мбайт (3%)
Заголовок : MVO (OPT)
Язык : Russian
Default : Нет
Forced : Нет

Аудио #3
Идентификатор : 4
Формат : AC-3
Формат/Информация : Audio Coding 3
Расширение режима : CM (complete main)
Параметр Endianness формата : Big
Идентификатор кодека : A_AC3
Продолжительность : 2 ч. 5 м.
Вид битрейта : Постоянный
Битрейт : 192 Кбит/сек
Каналы : 2 канала
Расположение каналов : Front: L R
Частота : 48,0 КГц
Битовая глубина : 16 бит
Метод сжатия : С потерями
Размер потока : 172 Мбайт (3%)
Заголовок : DVO (HTB+)
Язык : Russian
Default : Нет
Forced : Нет

Аудио #4
Идентификатор : 5
Формат : AC-3
Формат/Информация : Audio Coding 3
Расширение режима : CM (complete main)
Параметр Endianness формата : Big
Идентификатор кодека : A_AC3
Продолжительность : 2 ч. 5 м.
Вид битрейта : Постоянный
Битрейт : 192 Кбит/сек
Каналы : 2 канала
Расположение каналов : Front: L R
Частота : 48,0 КГц
Битовая глубина : 16 бит
Метод сжатия : С потерями
Размер потока : 172 Мбайт (3%)
Заголовок : AVO (Андрей Гаврилов)
Язык : Russian
Default : Нет
Forced : Нет

загрузка...
Правила, инструкции, FAQ!!!
Торрент  Добавлен [24 май 2013, 17:13] Скачать торрент
Скачать торрент
[ Размер 31.15 КБ / Просмотров 5 ]

Статус  
 
Размер  6.1 ГБ
Приватный: Нет (DHT включён)
.torrent скачан  0
Как залить торрент? | Как скачать Torrent? | Как смотреть и слушать онлайн?  


     Отправить личное сообщение
   
Страница 1 из 1
Показать сообщения за:  Поле сортировки  
Начать новую тему Ответить на тему

   Похожие торренты   Автор   Ответы   Просмотры   Последнее сообщение 
В этой теме нет новых непрочитанных сообщений. Скачать торрент Проверен Dopapod • The Theatre of Living Arts (Philadelphia, Pennsylvania) [2016, Progressive Jazz Rock, Electronic Funk, WEB DL 720p]

в форуме Концерты (HD-Video), Размер: 5.59 ГБ, Здоровье: 100%

Anonymous

0
2|1

0
0

23 окт 2016, 18:39

Anonymous Перейти к последнему сообщению

В этой теме нет новых непрочитанных сообщений. Скачать торрент Проверен Поездка / Ride (2014) ВDRip 720р | P

в форуме 720p | 1080p, Размер: 4.5 ГБ, Здоровье: 100%

Anonymous

0
55|10

86
14

16 ноя 2015, 00:05

Anonymous Перейти к последнему сообщению

В этой теме нет новых непрочитанных сообщений. Скачать торрент Проверен Поездка / Ride (2014) ВDRip 1080р | P

в форуме 720p | 1080p, Размер: 6.69 ГБ, Здоровье: 100%

Гость

0
29|1

94
37

16 ноя 2015, 00:03

Гость Перейти к последнему сообщению

В этой теме нет новых непрочитанных сообщений. Скачать торрент Проверен Виктория / Victoria (2015) ВDRip 1080р | P

в форуме 720p | 1080p, Размер: 10.2 ГБ, Здоровье: 100%

Гость

0
130|1

52
56

28 ноя 2015, 08:59

Гость Перейти к последнему сообщению

В этой теме нет новых непрочитанных сообщений. Скачать торрент Проверен Черный динамит / Black Dynamite (2009) ВDRip | L1

в форуме Комедии, Размер: 1.46 ГБ, Здоровье: 100%

Гость

0
2|0

125
2

28 мар 2016, 20:24

Гость Перейти к последнему сообщению



Сейчас этот форум просматривают: нет зарегистрированных пользователей и гости: 1


Вы не можете начинать темы
Вы не можете отвечать на сообщения
Вы не можете редактировать свои сообщения
Вы не можете удалять свои сообщения
Вы не можете добавлять вложения

Перейти:  

!ВНИМАНИЕ!
 Ресурс не предоставляет электронные версии произведений, а занимается лишь коллекционированием и каталогизацией ссылок, присылаемых и публикуемых на форуме нашими читателями. Если вы являетесь правообладателем какого-либо представленного материала и не желаете чтобы ссылка на него находилась в нашем каталоге, свяжитесь с нами и мы незамедлительно удалим её. Файлы для обмена на трекере предоставлены пользователями сайта, и администрация не несёт ответственности за их содержание. Просьба не заливать файлы, защищенные авторскими правами, а также файлы нелегального содержания!