На всех торрентах на трекере установлена скидка на скачивание в размере 100 процентов(а).
 Возможность скачивания торрента НЕ зависит от ограничений при низком ратио, низком аплоаде, требуемом ратио или требуемом аплоаде.


Начать новую тему Ответить на тему
Статистика раздачи
Размер: 5.77 ГБ | Добавлен: 18 май 2013, 22:27 | Скачали: 0
Сидеров: 0  [0 байт/сек]    Личеров: 0  [0 байт/сек]
Пред. тема | След. тема 

Автор
Сообщение

СообщениеДобавлено: 18 май 2013, 22:27 

Название: Короли улиц
Оригинальное название: Street Kings
Год выхода: 2008
Жанр: боевик, триллер, драма, криминал
Режиссер: Дэвид Эйр

В фильме снимались: Киану Ривз, Форест Уитакер, Хью Лори, Крис Эванс, Кевин Бентон, Марта Хигареда, Наоми Харрис, Амори Ноласко, Терри Крюс

Вкратце:
Полицейский из Лос-Анджелеса ни разу в жизни не задумывался над тем, что его может ожидать за гранью собственного уютного мира. Однако со смертью любимой жены в его жизнь входит темная, беспощадная, отчаянная пустота. Ладлоу вынужден действовать, когда его же собственные друзья-соратники обвиняют его в убийстве. Так начинается борьба человека за свое место в мире, который все больше и больше контролируется внешними силами.



Выпущено: США
Продолжительность: 01:48:48
Перевод: Дублированный + Оригинал

Формат: mkv
Кодек: x264
Качество: BDRip 1080p
Видео: 1920x800, 6693 Kbps, 23.976 fps
Аудио #1: AC-3, 6 ch, 448 kbps (Rus)
Аудио #2: AC-3, 6 ch, 448 kbps (Eng)
Субтитры: русские, английские

Общее
Уникальный идентификатор : 178705841484503968385918252345889593573 (0x86717E3E1BA441D0850322497C4F18E5)
Полное имя : Короли улиц.2008.BDRip.1080p.Rus.Eng.mkv
Формат : Matroska
Версия формата : Version 2
Размер файла : 5,77 Гбайт
Продолжительность : 1 ч. 48 м.
Общий поток : 7587 Кбит/сек
Название фильма : Короли улиц.2008
Дата кодирования : UTC 2013-05-18 17:33:49
Программа кодирования : mkvmerge v5.8.0 ('No Sleep / Pillow') built on Sep 2 2012 15:37:04
Библиотека кодирования : libebml v1.2.3 + libmatroska v1.3.0

Видео
Идентификатор : 1
Формат : AVC
Формат/Информация : Advanced Video Codec
Профиль формата : High@L4.1
Параметр CABAC формата : Да
Параметр ReFrames формата : 5 кадров
Идентификатор кодека : V_MPEG4/ISO/AVC
Продолжительность : 1 ч. 48 м.
Битрейт : 6693 Кбит/сек
Ширина : 1920 пикселей
Высота : 800 пикселей
Соотношение сторон : 2,40:1
Режим частоты кадров : Постоянный
Частота кадров : 23,976 кадра/сек
Цветовое пространство : YUV
Субдискретизация насыщенности : 4:2:0
Битовая глубина : 8 бит
Тип развёртки : Прогрессивная
Бит/(Пиксели*Кадры) : 0.182
Размер потока : 4,97 Гбайт (86%)
Заголовок : Rip by Boriy
Библиотека кодирования : x264 core 132 r2310 76a5c3a
Настройки программы : cabac=1 / ref=5 / deblock=1:-3:-3 / analyse=0x3:0x113 / me=umh / subme=10 / psy=1 / psy_rd=1.00:0.10 / mixed_ref=1 / me_range=32 / chroma_me=1 / trellis=2 / 8x8dct=1 / cqm=0 / deadzone=21,11 / fast_pskip=0 / chroma_qp_offset=-2 / threads=12 / lookahead_threads=1 / sliced_threads=0 / nr=0 / decimate=0 / interlaced=0 / bluray_compat=0 / constrained_intra=0 / bframes=5 / b_pyramid=2 / b_adapt=2 / b_bias=0 / direct=3 / weightb=1 / open_gop=0 / weightp=2 / keyint=240 / keyint_min=23 / scenecut=40 / intra_refresh=0 / rc=2pass / mbtree=0 / bitrate=6693 / ratetol=1.0 / qcomp=0.60 / qpmin=0 / qpmax=69 / qpstep=4 / cplxblur=20.0 / qblur=0.5 / ip_ratio=1.40 / pb_ratio=1.30 / aq=1:0.80
Язык : English
Default : Да
Forced : Нет

Аудио #1
Идентификатор : 2
Формат : AC-3
Формат/Информация : Audio Coding 3
Расширение режима : CM (complete main)
Параметр Endianness формата : Big
Идентификатор кодека : A_AC3
Продолжительность : 1 ч. 48 м.
Вид битрейта : Постоянный
Битрейт : 448 Кбит/сек
Каналы : 6 каналов
Расположение каналов : Front: L C R, Side: L R, LFE
Частота : 48,0 КГц
Битовая глубина : 16 бит
Метод сжатия : С потерями
Размер потока : 349 Мбайт (6%)
Заголовок : Дубляж
Язык : Russian
Default : Да
Forced : Нет

Аудио #2
Идентификатор : 3
Формат : AC-3
Формат/Информация : Audio Coding 3
Расширение режима : CM (complete main)
Параметр Endianness формата : Big
Идентификатор кодека : A_AC3
Продолжительность : 1 ч. 48 м.
Вид битрейта : Постоянный
Битрейт : 448 Кбит/сек
Каналы : 6 каналов
Расположение каналов : Front: L C R, Side: L R, LFE
Частота : 48,0 КГц
Битовая глубина : 16 бит
Метод сжатия : С потерями
Размер потока : 349 Мбайт (6%)
Заголовок : Оригинал
Язык : English
Default : Нет
Forced : Нет

Текст #1
Идентификатор : 4
Формат : UTF-8
Идентификатор кодека : S_TEXT/UTF8
Идентификатор кодека/Информация : UTF-8 Plain Text
Язык : Russian
Default : Нет
Forced : Нет

Текст #2
Идентификатор : 5
Формат : UTF-8
Идентификатор кодека : S_TEXT/UTF8
Идентификатор кодека/Информация : UTF-8 Plain Text
Язык : English
Default : Нет
Forced : Нет

Меню
00:00:00.000 : :Chapter 1
00:04:02.367 : :Chapter 2
00:10:13.237 : :Chapter 3
00:14:47.136 : :Chapter 4
00:18:17.221 : :Chapter 5
00:21:22.197 : :Chapter 6
00:24:44.691 : :Chapter 7
00:28:44.973 : :Chapter 8
00:30:09.974 : :Chapter 9
00:34:25.980 : :Chapter 10
00:38:20.381 : :Chapter 11
00:41:17.516 : :Chapter 12
00:44:57.653 : :Chapter 13
00:47:09.284 : :Chapter 14
00:50:12.968 : :Chapter 15
00:54:22.550 : :Chapter 16
00:57:35.827 : :Chapter 17
01:00:36.299 : :Chapter 18
01:04:01.671 : :Chapter 19
01:07:32.673 : :Chapter 20
01:11:08.555 : :Chapter 21
01:15:26.688 : :Chapter 22
01:22:26.942 : :Chapter 23
01:28:34.809 : :Chapter 24
01:32:36.801 : :Chapter 25
01:35:54.582 : :Chapter 26
01:40:31.066 : :Chapter 27
01:42:49.163 : :Chapter 28
01:48:48.480 : :Chapter 29
загрузка...
Правила, инструкции, FAQ!!!
Торрент  Добавлен [18 май 2013, 22:27] Скачать торрент
Скачать торрент
[ Размер 29.27 КБ / Просмотров 7 ]

Статус  
 
Размер  5.77 ГБ
Приватный: Нет (DHT включён)
.torrent скачан  0
Как залить торрент? | Как скачать Torrent? | Как смотреть и слушать онлайн?  


     Отправить личное сообщение
   
Страница 1 из 1
Показать сообщения за:  Поле сортировки  
Начать новую тему Ответить на тему

   Похожие торренты   Автор   Ответы   Просмотры   Последнее сообщение 
В этой теме нет новых непрочитанных сообщений. Скачать торрент Проверен Короли улиц / Street Kings (2008) BDRip 720p | D, P

в форуме 720p | 1080p, Размер: 4.37 ГБ, Здоровье: 100%

Anonymous

0
24|1

36
259

25 окт 2014, 17:58

Anonymous Перейти к последнему сообщению

В этой теме нет новых непрочитанных сообщений. Скачать торрент Короли улиц / Street Kings (Дэвид Эйер / David Ayer) [2008 г., боевик, триллер, драма, криминал, DVDRip] AVO (Гаврилов, Сербин) + original

в форуме Боевики, Размер: 1.77 ГБ, Здоровье: 100%

Anonymous

0
3|1

61
0

01 апр 2014, 09:35

Anonymous Перейти к последнему сообщению

В этой теме нет новых непрочитанных сообщений. Скачать торрент Проверен (RAC) ВИА Сбоi! - Музыка улиц - 2008, MP3 (tracks), 320 kbps

в форуме Русский Рок, Размер: 115.97 МБ, Здоровье: 0%

Anonymous

0
0|0

0
0

22 авг 2016, 13:48

Anonymous Перейти к последнему сообщению

В этой теме нет новых непрочитанных сообщений. Скачать торрент Проверен (Blues) Studebaker John's Maxwell Street Kings - That's The Way You Do - 2010, APE (image+.cue) lossless

в форуме Blues (Texas, Chicago, Modern and Others), Размер: 458.55 МБ, Здоровье: 0%

Anonymous

0
0|0

2
0

15 окт 2016, 23:57

Anonymous Перейти к последнему сообщению

В этой теме нет новых непрочитанных сообщений. Скачать торрент Проверен (rock-n-roll, blues, chanson, cabare) Короли Кухни - Короли Кухни - 2006, MP3 (tracks), 192 kbps

в форуме Русский Рок, Размер: 66.45 МБ, Здоровье: 0%

Anonymous

0
0|0

2
0

22 авг 2016, 01:55

Anonymous Перейти к последнему сообщению



Сейчас этот форум просматривают: нет зарегистрированных пользователей и гости: 1


Вы не можете начинать темы
Вы не можете отвечать на сообщения
Вы не можете редактировать свои сообщения
Вы не можете удалять свои сообщения
Вы не можете добавлять вложения

Перейти:  

!ВНИМАНИЕ!
 Ресурс не предоставляет электронные версии произведений, а занимается лишь коллекционированием и каталогизацией ссылок, присылаемых и публикуемых на форуме нашими читателями. Если вы являетесь правообладателем какого-либо представленного материала и не желаете чтобы ссылка на него находилась в нашем каталоге, свяжитесь с нами и мы незамедлительно удалим её. Файлы для обмена на трекере предоставлены пользователями сайта, и администрация не несёт ответственности за их содержание. Просьба не заливать файлы, защищенные авторскими правами, а также файлы нелегального содержания!