На всех торрентах на трекере установлена скидка на скачивание в размере 100 процентов(а).
 Возможность скачивания торрента НЕ зависит от ограничений при низком ратио, низком аплоаде, требуемом ратио или требуемом аплоаде.


Начать новую тему Ответить на тему
Статистика раздачи
Размер: 1.45 ГБ | Добавлен: 18 май 2013, 12:35 | Скачали: 1
Сидеров: 36  [0 байт/сек]    Личеров: 0  [0 байт/сек]
Пред. тема | След. тема 

Автор
Сообщение

СообщениеДобавлено: 18 май 2013, 12:35 

Название: Санктум
Оригинальное название: Sanctum
Год выхода: 2011
Жанр: триллер, драма, приключения
Режиссер: Алистер Грирсон

В фильме снимались: Ричард Роксбург, Риз Уэйкфилд, Йоан Гриффит, Элис Паркинсон, Дэниэл Уилли, Кристофер Бэйкер, Элисон Крэтчли, Крамер Кэйн, Эндрю Хансен, Джон Гарвин

Вкратце: Группа дайверов предпринимает очень рискованную экспедицию в самую большую систему пещер на Земле — невероятно красивую и почти недоступную. Неожиданный тропический шторм вынуждает их спуститься глубоко в пещеры. Единственное спасение для исследователей — найти неизвестный второй выход к морю, преодолевая неистовую стихию бушующих вод, коварные ловушки подземелий и смертельный ужас…



Страна: США, Австралия
Продолжительность: 01:48:43
Перевод: Дублированный, Оригинал (Английский)

Формат: mkv
Кодек: x.264
Качество: HDRip-AVC
Видео: 960x528 (16:9), 23,976 fps, 1390 kbps, 0.115 bit/pixel
Аудио #1: 48 kHz, AC3 Dolby Digital, 6 ch, ~384.00 kbps (Русский)
Аудио #2: 48 kHz, AC3 Dolby Digital, 2 ch, ~128.00 kbps (Английский)
Субтитры: Русские, Английские (отключаемые)

&

Общее
Уникальный идентификатор : 244185368151100775416175769956757836264 (0xB7B46428FB821D40B5CE82C2DF9C91E8)
Полное имя : D:TorrentSanctum.2011.HDRip-AVC.mkv
Формат : Matroska
Версия формата : Version 4 / Version 2
Размер файла : 1,45 Гбайт
Продолжительность : 1 ч. 48 м.
Общий поток : 1912 Кбит/сек
Название фильма : Санктум / Sanctum (2011) HDRip-AVC rip by Rulya74
Дата кодирования : UTC 2013-05-18 04:54:25
Программа кодирования : mkvmerge v6.2.0 ('Promised Land') built on Apr 28 2013 12:22:01
Библиотека кодирования : libebml v1.3.0 + libmatroska v1.4.0

Видео
Идентификатор : 1
Формат : AVC
Формат/Информация : Advanced Video Codec
Профиль формата : High@L4.1
Параметр CABAC формата : Да
Параметр ReFrames формата : 10 кадров
Идентификатор кодека : V_MPEG4/ISO/AVC
Продолжительность : 1 ч. 48 м.
Битрейт : 1399 Кбит/сек
Ширина : 960 пикселей
Высота : 528 пикселей
Соотношение сторон : 16:9
Режим частоты кадров : Постоянный
Частота кадров : 23,976 кадра/сек
Цветовое пространство : YUV
Субдискретизация насыщенности : 4:2:0
Битовая глубина : 8 бит
Тип развёртки : Прогрессивная
Бит/(Пиксели*Кадры) : 0.115
Размер потока : 1,03 Гбайт (71%)
Библиотека кодирования : x264 core 132 r2310 76a5c3a
Настройки программы : cabac=1 / ref=10 / deblock=1:-1:-1 / analyse=0x3:0x113 / me=umh / subme=9 / psy=1 / psy_rd=1.22:0.80 / mixed_ref=1 / me_range=32 / chroma_me=1 / trellis=2 / 8x8dct=1 / cqm=0 / deadzone=21,11 / fast_pskip=0 / chroma_qp_offset=-4 / threads=6 / lookahead_threads=1 / sliced_threads=0 / nr=0 / decimate=1 / interlaced=0 / bluray_compat=0 / constrained_intra=0 / bframes=7 / b_pyramid=2 / b_adapt=2 / b_bias=0 / direct=3 / weightb=1 / open_gop=0 / weightp=2 / keyint=240 / keyint_min=22 / scenecut=40 / intra_refresh=0 / rc_lookahead=40 / rc=2pass / mbtree=1 / bitrate=1399 / ratetol=1.0 / qcomp=0.60 / qpmin=0 / qpmax=69 / qpstep=4 / cplxblur=20.0 / qblur=0.5 / vbv_maxrate=62500 / vbv_bufsize=78125 / nal_hrd=none / ip_ratio=1.40 / aq=1:1.00
Default : Да
Forced : Нет

Аудио #1
Идентификатор : 2
Формат : AC-3
Формат/Информация : Audio Coding 3
Расширение режима : CM (complete main)
Параметр Endianness формата : Big
Идентификатор кодека : A_AC3
Продолжительность : 1 ч. 48 м.
Вид битрейта : Постоянный
Битрейт : 384 Кбит/сек
Каналы : 6 каналов
Расположение каналов : Front: L C R, Side: L R, LFE
Частота : 48,0 КГц
Битовая глубина : 16 бит
Метод сжатия : С потерями
Размер потока : 299 Мбайт (20%)
Заголовок : Дублированный
Язык : Russian
Default : Да
Forced : Нет

Аудио #2
Идентификатор : 3
Формат : AC-3
Формат/Информация : Audio Coding 3
Расширение режима : CM (complete main)
Параметр Endianness формата : Big
Идентификатор кодека : A_AC3
Продолжительность : 1 ч. 48 м.
Вид битрейта : Постоянный
Битрейт : 128 Кбит/сек
Каналы : 2 канала
Расположение каналов : Front: L R
Частота : 48,0 КГц
Битовая глубина : 16 бит
Метод сжатия : С потерями
Размер потока : 99,5 Мбайт (7%)
Заголовок : Оригинал
Язык : English
Default : Нет
Forced : Нет

Текст #1
Идентификатор : 4
Формат : UTF-8
Идентификатор кодека : S_TEXT/UTF8
Идентификатор кодека/Информация : UTF-8 Plain Text
Язык : Russian
Default : Да
Forced : Нет

Текст #2
Идентификатор : 5
Формат : UTF-8
Идентификатор кодека : S_TEXT/UTF8
Идентификатор кодека/Информация : UTF-8 Plain Text
Язык : English
Default : Нет
Forced : Нет
загрузка...
Правила, инструкции, FAQ!!!
Торрент  Добавлен [18 май 2013, 12:35] Скачать торрент
Скачать торрент
[ Размер 14.93 КБ / Просмотров 4 ]

Статус  
 
Размер  1.45 ГБ
Приватный: Нет (DHT включён)
.torrent скачан  1
Как залить торрент? | Как скачать Torrent? | Как смотреть и слушать онлайн?  


     Отправить личное сообщение
   
Страница 1 из 1
Показать сообщения за:  Поле сортировки  
Начать новую тему Ответить на тему

   Похожие торренты   Автор   Ответы   Просмотры   Последнее сообщение 
В этой теме нет новых непрочитанных сообщений. Скачать торрент Проверен [PSP] Санктум / Sanctum (2011) DVDRip

в форуме Видео для смартфонов и КПК, Размер: 643.52 МБ, Здоровье: 100%

Anonymous

0
1|1

11
0

25 окт 2014, 23:14

Anonymous Перейти к последнему сообщению

В этой теме нет новых непрочитанных сообщений. Скачать торрент Проверен [EVO 3D/Optimus 3D]Санктум 3D / Sanctum 3D (2011) BDRip

в форуме Видео для смартфонов и КПК, Размер: 1.96 ГБ, Здоровье: 66%

Anonymous

0
2|3

16
0

25 окт 2014, 23:19

Anonymous Перейти к последнему сообщению

В этой теме нет новых непрочитанных сообщений. Скачать торрент Sanctum 2 (2013) PC | Repack от Audioslave

в форуме Action, Размер: 1.65 ГБ, Здоровье: 0%

Anonymous

0
0|0

71
1

16 дек 2013, 00:34

Anonymous Перейти к последнему сообщению

В этой теме нет новых непрочитанных сообщений. Скачать торрент Проверен (Heavy Metal) Inner Sanctum - 12 A.M. - 1986, MP3, 192 kbps

в форуме Heavy, Power, Progressive (Metal), Размер: 41.9 МБ, Здоровье: 0%

Anonymous

0
0|0

0
0

08 окт 2016, 18:03

Anonymous Перейти к последнему сообщению

В этой теме нет новых непрочитанных сообщений. Скачать торрент Проверен (Heavy / Power Metal) Sanctum - Believers - 1991, MP3 , 320 kbps

в форуме Heavy, Power, Progressive (Metal), Размер: 81.14 МБ, Здоровье: 0%

Anonymous

0
0|0

0
0

08 окт 2016, 18:11

Anonymous Перейти к последнему сообщению



Сейчас этот форум просматривают: нет зарегистрированных пользователей и гости: 3


Вы не можете начинать темы
Вы не можете отвечать на сообщения
Вы не можете редактировать свои сообщения
Вы не можете удалять свои сообщения
Вы не можете добавлять вложения

Перейти:  

!ВНИМАНИЕ!
 Ресурс не предоставляет электронные версии произведений, а занимается лишь коллекционированием и каталогизацией ссылок, присылаемых и публикуемых на форуме нашими читателями. Если вы являетесь правообладателем какого-либо представленного материала и не желаете чтобы ссылка на него находилась в нашем каталоге, свяжитесь с нами и мы незамедлительно удалим её. Файлы для обмена на трекере предоставлены пользователями сайта, и администрация не несёт ответственности за их содержание. Просьба не заливать файлы, защищенные авторскими правами, а также файлы нелегального содержания!