На всех торрентах на трекере установлена скидка на скачивание в размере 100 процентов(а).
 Возможность скачивания торрента НЕ зависит от ограничений при низком ратио, низком аплоаде, требуемом ратио или требуемом аплоаде.


Начать новую тему Ответить на тему
Статистика раздачи
Размер: 3.99 ГБ | Добавлен: 16 май 2013, 11:38 | Скачали: 0
Сидеров: 0  [0 байт/сек]    Личеров: 0  [0 байт/сек]
Пред. тема | След. тема 

Автор
Сообщение

СообщениеДобавлено: 16 май 2013, 11:38 

Русское название: Крепкий орешек: Хороший день, чтобы умереть
Оригинальное название: A Good Day to Die Hard
Год выпуска: 2013
Производство: США / Dune Entertainment, Ingenious Film Partners, Origo Film Group
Жанр: Боевик, Триллер, Криминал
Перевод: Дублированный [Чистый звук]
Cубтитры: Нет

Режиссер: Джон Мур

Актеры: Брюс Уиллис, Джай Кортни, Себастьян Кох, Юлия Снигирь, Радивойе Буквич, Сергей Колесников, Мэри Элизабет Уинстэд, Коул Хаузер, Амори Ноласко, Роман Лукнар

Описание фильма:
Джон МакКлейн прибывает в Москву, чтобы вызволить из тюрьмы своего непредсказуемого сына, но холодная голова и железные мускулы вязнут в паутине российской действительности. Дело, в которое влип МакКлейн-младший, оказывается настолько «опасной трясиной», что отцу и сыну, чтобы выжить и в очередной раз спасти мир, приходится объединить свои усилия, забыв прежние, казалось бы, непреодолимые разногласия.

Релиз от:



Качество: WEB-DLRip 1080р
Видео: MPEG-4 AVC/H.264, 1916x1036, ~ 4871 Кбит/сек
Аудио 1: AC3 5.1, 448 Kbps, 48000 Hz - Русский
Аудио 2: AC3 5.1, 384 Kbps, 48000 Hz - Английский

Русская дорожка получена из Английской, путём замены центрального канала на русскую дорожку с линии, с помощью SONY Vegas Pro 12.0.
Формат : Matroska
Версия формата : Version 2
Размер файла : 3,99 Гбайт
Продолжительность : 1 ч. 38 м.
Общий поток : 5813 Кбит/сек
Название фильма : Krepkij.Oreshek.2013.D.WEBDL.1080p.NNN-CLUB
Дата кодирования : UTC 2013-05-15 18:49:13
Программа кодирования : mkvmerge v5.8.0 ('No Sleep / Pillow') built on Sep 2 2012 15:37:04
Библиотека кодирования : libebml v1.2.3 + libmatroska v1.3.0

Видео
Идентификатор : 1
Формат : AVC
Формат/Информация : Advanced Video Codec
Профиль формата : High@L4.0
Параметр CABAC формата : Да
Параметр ReFrames формата : 4 кадра
Идентификатор кодека : V_MPEG4/ISO/AVC
Продолжительность : 1 ч. 38 м.
Битрейт : 4865 Кбит/сек
Ширина : 1916 пикселей
Высота : 1036 пикселей
Соотношение сторон : 1,85:1
Режим частоты кадров : Постоянный
Частота кадров : 23,976 кадра/сек
Цветовое пространство : YUV
Субдискретизация насыщенности : 4:2:0
Битовая глубина : 8 бит
Тип развёртки : Прогрессивная
Бит/(Пиксели*Кадры) : 0.102
Размер потока : 3,34 Гбайт (84%)
Заголовок : Krepkij.Oreshek.2013.D.WEBDL.1080p.NNN-CLUB
Язык : English
Default : Да
Forced : Да
Основные цвета : BT.709
Характеристики трансфера : BT.709
Коэффициенты матрицы : BT.709

Аудио #1
Идентификатор : 2
Формат : AC-3
Формат/Информация : Audio Coding 3
Расширение режима : CM (complete main)
Параметр Endianness формата : Big
Идентификатор кодека : A_AC3
Продолжительность : 1 ч. 38 м.
Вид битрейта : Постоянный
Битрейт : 448 Кбит/сек
Каналы : 6 каналов
Расположение каналов : Front: L C R, Side: L R, LFE
Частота : 48,0 КГц
Битовая глубина : 16 бит
Метод сжатия : С потерями
Размер потока : 315 Мбайт (8%)
Заголовок : Дубляж (чистый звук)
Язык : Russian
Default : Да
Forced : Нет

Аудио #2
Идентификатор : 3
Формат : AC-3
Формат/Информация : Audio Coding 3
Расширение режима : CM (complete main)
Параметр Endianness формата : Big
Идентификатор кодека : A_AC3
Продолжительность : 1 ч. 38 м.
Вид битрейта : Постоянный
Битрейт : 384 Кбит/сек
Каналы : 6 каналов
Расположение каналов : Front: L C R, Side: L R, LFE
Частота : 48,0 КГц
Битовая глубина : 16 бит
Метод сжатия : С потерями
Размер потока : 270 Мбайт (7%)
Заголовок : ENGLiSH AUDiO AC3 6 chnl kbps
Язык : English
Default : Нет
Forced : Нет
загрузка...
Правила, инструкции, FAQ!!!
Торрент  Добавлен [16 май 2013, 11:38] Скачать торрент
Скачать торрент
[ Размер 20.36 КБ / Просмотров 8 ]

Статус  
 
Размер  3.99 ГБ
Приватный: Нет (DHT включён)
.torrent скачан  0
Как залить торрент? | Как скачать Torrent? | Как смотреть и слушать онлайн?  


     Отправить личное сообщение
   
Страница 1 из 1
Показать сообщения за:  Поле сортировки  
Начать новую тему Ответить на тему

   Похожие торренты   Автор   Ответы   Просмотры   Последнее сообщение 
В этой теме нет новых непрочитанных сообщений. Скачать торрент Проверен Хороший динозавр / The Good Dinosaur (2015) НDRip | Чистый звук

в форуме Зарубежные мультфильмы, Размер: 1.45 ГБ, Здоровье: 100%

Гость

0
6082|2161

206
18

09 фев 2016, 20:15

Гость Перейти к последнему сообщению

В этой теме нет новых непрочитанных сообщений. Скачать торрент Проверен Хороший динозавр / The Good Dinosaur (2015) BDRip 1080p | Чистый звук

в форуме Зарубежные мультфильмы (HD Video), Размер: 4.51 ГБ, Здоровье: 100%

Гость

0
1693|1648

146
878

09 фев 2016, 20:12

Гость Перейти к последнему сообщению

В этой теме нет новых непрочитанных сообщений. Скачать торрент Крепкий орешек: Квадрология / Die Hard: Quadrilogy (1988-2007) BDRip 1080p

в форуме Квадралогии, Размер: 46.02 ГБ, Здоровье: 100%

Anonymous

0
10|4

281
40

18 дек 2013, 08:36

Anonymous Перейти к последнему сообщению

В этой теме нет новых непрочитанных сообщений. Скачать торрент Крепкий орешек 4.0 (Die Hard 4.0: Live Free or Die Hard) (2007) [MP4|640x272] <BDRip>

в форуме Видео для смартфонов и КПК, Размер: 826.99 МБ, Здоровье: ???%

Anonymous

0
0|1

61
1

21 апр 2014, 22:27

Anonymous Перейти к последнему сообщению

В этой теме нет новых непрочитанных сообщений. Скачать торрент Проверен Бестселлеры Голливуда - Roderick Thorp / Родерик Торп - Die Hard / Крепкий орешек [1993, FB2, RUS]

в форуме Детективы и Боевики, Размер: 403.72 КБ, Здоровье: 0%

Anonymous

0
0|0

3
0

08 сен 2016, 20:54

Anonymous Перейти к последнему сообщению



Сейчас этот форум просматривают: нет зарегистрированных пользователей и гости: 2


Вы не можете начинать темы
Вы не можете отвечать на сообщения
Вы не можете редактировать свои сообщения
Вы не можете удалять свои сообщения
Вы не можете добавлять вложения

Перейти:  

!ВНИМАНИЕ!
 Ресурс не предоставляет электронные версии произведений, а занимается лишь коллекционированием и каталогизацией ссылок, присылаемых и публикуемых на форуме нашими читателями. Если вы являетесь правообладателем какого-либо представленного материала и не желаете чтобы ссылка на него находилась в нашем каталоге, свяжитесь с нами и мы незамедлительно удалим её. Файлы для обмена на трекере предоставлены пользователями сайта, и администрация не несёт ответственности за их содержание. Просьба не заливать файлы, защищенные авторскими правами, а также файлы нелегального содержания!