На всех торрентах на трекере установлена скидка на скачивание в размере 100 процентов(а).
 Возможность скачивания торрента НЕ зависит от ограничений при низком ратио, низком аплоаде, требуемом ратио или требуемом аплоаде.


Начать новую тему Ответить на тему
Статистика раздачи
Размер: 7.76 ГБ | Добавлен: 12 май 2013, 21:08 | Скачали: 33
Сидеров: 103  [0 байт/сек]    Личеров: 14  [0 байт/сек]
Пред. тема | След. тема 

Автор
Сообщение

СообщениеДобавлено: 12 май 2013, 21:08 

Название: 127 часов
Оригинальное название: 127 Hours
Год выхода: 2010
Жанр: триллер, биография, драма, приключения
Режиссер: Дэнни Бойл

В фильме снимались: Джеймс Франко, Кейт Мара, Эмбер Тэмблин, Клеманс Поэзи, Лиззи Каплан, Трит Уильямс, Кейт Бёртон, Шон Ботт, Джон Лоуренс, Колман Стингер

Вкратце: Неудержимый скалолаз и любитель спрятанных в каньонах пещер в очередной раз в одиночестве едет в горы и оказывается в смертельной ловушке. 127 часов без еды, без питья и практически без надежды выжить. Тут-то и проявляется сила характера…



Выпущено: Fox Searchlight Pictures
Продолжительность: 01:33:42
Перевод: Дублированный (лицензия) + Авторский (Ю.Сербин)

Формат: mkv
Кодек: x264
Качество: BDRip (источник: Blu-ray Disc)
Видео: 1920x1040 (16:9), 23.976 fps, 10.5 Mbps
Аудио #1: AC-3, 6 ch, 448 kbps (Дубляж)
Аудио #2: AC-3, 6 ch, 448 kbps (Одноголосый закадровый, Ю.Сербин)
Аудио #3: AC-3, 6 ch, 448 kbps (Original)
Субтитры: Русские, Английские


Скриншоты

Общее
Уникальный идентификатор : 197949149122561934716173464381373619212 (0x94EB9E8F6ECF66DF8A49D1CF99651C0C)
Полное имя : 127.Hours.2010.BDRip.1080p.Rus.Eng.mkv
Формат : Matroska
Версия формата : Version 2
Размер файла : 7,76 Гбайт
Продолжительность : 1 ч. 33 м.
Общий поток : 11,9 Мбит/сек
Название фильма : 127 часов / 127 Hours (2010)
Дата кодирования : UTC 2013-05-12 12:58:04
Программа кодирования : mkvmerge v5.8.0 ('No Sleep / Pillow') built on Sep 2 2012 15:37:04
Библиотека кодирования : libebml v1.2.3 + libmatroska v1.3.0

Видео
Идентификатор : 1
Формат : AVC
Формат/Информация : Advanced Video Codec
Профиль формата : High@L4.1
Параметр CABAC формата : Да
Параметр ReFrames формата : 4 кадра
Идентификатор кодека : V_MPEG4/ISO/AVC
Продолжительность : 1 ч. 33 м.
Битрейт : 10,5 Мбит/сек
Ширина : 1920 пикселей
Высота : 1040 пикселей
Соотношение сторон : 16:9
Частота кадров : 23,976 кадра/сек
Цветовое пространство : YUV
Субдискретизация насыщенности : 4:2:0
Битовая глубина : 8 бит
Тип развёртки : Прогрессивная
Бит/(Пиксели*Кадры) : 0.220
Размер потока : 6,72 Гбайт (87%)
Заголовок : Release by AlexKa
Библиотека кодирования : x264 core 132 r2310 76a5c3a
Настройки программы : cabac=1 / ref=4 / deblock=1:-3:-3 / analyse=0x3:0x133 / me=umh / subme=10 / psy=1 / psy_rd=1.00:0.00 / mixed_ref=1 / me_range=32 / chroma_me=1 / trellis=2 / 8x8dct=1 / cqm=0 / deadzone=21,11 / fast_pskip=0 / chroma_qp_offset=-2 / threads=12 / lookahead_threads=1 / sliced_threads=0 / nr=0 / decimate=0 / interlaced=0 / bluray_compat=0 / constrained_intra=0 / bframes=4 / b_pyramid=2 / b_adapt=2 / b_bias=0 / direct=3 / weightb=1 / open_gop=0 / weightp=2 / keyint=240 / keyint_min=23 / scenecut=40 / intra_refresh=0 / rc=2pass / mbtree=0 / bitrate=10510 / ratetol=1.0 / qcomp=0.60 / qpmin=0 / qpmax=69 / qpstep=4 / cplxblur=20.0 / qblur=0.5 / ip_ratio=1.40 / pb_ratio=1.30 / aq=1:0.80
Язык : English

Аудио #1
Идентификатор : 2
Формат : AC-3
Формат/Информация : Audio Coding 3
Расширение режима : CM (complete main)
Идентификатор кодека : A_AC3
Продолжительность : 1 ч. 33 м.
Вид битрейта : Постоянный
Битрейт : 448 Кбит/сек
Каналы : 6 каналов
Расположение каналов : Front: L C R, Side: L R, LFE
Частота : 48,0 КГц
Битовая глубина : 16 бит
Метод сжатия : С потерями
Размер потока : 300 Мбайт (4%)
Заголовок : Дубляж
Язык : Russian

Аудио #2
Идентификатор : 3
Формат : AC-3
Формат/Информация : Audio Coding 3
Расширение режима : CM (complete main)
Идентификатор кодека : A_AC3
Продолжительность : 1 ч. 33 м.
Вид битрейта : Постоянный
Битрейт : 448 Кбит/сек
Каналы : 6 каналов
Расположение каналов : Front: L C R, Side: L R, LFE
Частота : 48,0 КГц
Битовая глубина : 16 бит
Метод сжатия : С потерями
Размер потока : 300 Мбайт (4%)
Заголовок : Одноголосый закадровый, Ю.Сербин
Язык : Russian

Аудио #3
Идентификатор : 4
Формат : AC-3
Формат/Информация : Audio Coding 3
Расширение режима : CM (complete main)
Идентификатор кодека : A_AC3
Продолжительность : 1 ч. 33 м.
Вид битрейта : Постоянный
Битрейт : 448 Кбит/сек
Каналы : 6 каналов
Расположение каналов : Front: L C R, Side: L R, LFE
Частота : 48,0 КГц
Битовая глубина : 16 бит
Метод сжатия : С потерями
Размер потока : 300 Мбайт (4%)
Заголовок : Original
Язык : English

Текст #1
Идентификатор : 5
Формат : UTF-8
Идентификатор кодека : S_TEXT/UTF8
Идентификатор кодека/Информация : UTF-8 Plain Text
Заголовок : Rus
Язык : Russian

Текст #2
Идентификатор : 6
Формат : UTF-8
Идентификатор кодека : S_TEXT/UTF8
Идентификатор кодека/Информация : UTF-8 Plain Text
Заголовок : Eng
Язык : English

Меню
00:00:00.000 : :Chapter 01
00:05:08.141 : :Chapter 02
00:07:55.975 : :Chapter 03
00:10:46.729 : :Chapter 04
00:14:42.923 : :Chapter 05
00:20:43.533 : :Chapter 06
00:25:02.209 : :Chapter 07
00:29:34.898 : :Chapter 08
00:32:16.434 : :Chapter 09
00:35:46.727 : :Chapter 10
00:40:12.368 : :Chapter 11
00:45:48.704 : :Chapter 12
00:48:48.967 : :Chapter 13
00:52:01.743 : :Chapter 14
00:56:05.987 : :Chapter 15
01:00:57.320 : :Chapter 16
01:03:19.629 : :Chapter 17
01:06:43.207 : :Chapter 18
01:10:24.261 : :Chapter 19
01:12:31.221 : :Chapter 20
01:15:33.237 : :Chapter 21
01:19:51.703 : :Chapter 22
01:23:28.545 : :Chapter 23
01:28:07.907 : :Chapter 24
01:33:41.365 : :Chapter 25
x264 [info]: frame I:1048 Avg QP:17.26 size:226081
x264 [info]: frame P:36164 Avg QP:20.18 size: 97151
x264 [info]: frame B:97572 Avg QP:22.24 size: 37226
загрузка...
Правила, инструкции, FAQ!!!
Торрент  Добавлен [12 май 2013, 21:08] Скачать торрент
Скачать торрент
[ Размер 39.25 КБ / Просмотров 4 ]

Статус  
 
Размер  7.76 ГБ
Приватный: Нет (DHT включён)
.torrent скачан  33
Как залить торрент? | Как скачать Torrent? | Как смотреть и слушать онлайн?  


     Отправить личное сообщение
   
Страница 1 из 1
Показать сообщения за:  Поле сортировки  
Начать новую тему Ответить на тему

   Похожие торренты   Автор   Ответы   Просмотры   Последнее сообщение 
В этой теме нет новых непрочитанных сообщений. Скачать торрент Проверен 13 часов: Тайные солдаты Бенгази / 13 Hours (2016) BDRip-AVC | Лицензия

в форуме Боевики, Размер: 1.75 ГБ, Здоровье: 100%

Гость

0
94|52

77
101

26 авг 2016, 22:03

Гость Перейти к последнему сообщению

В этой теме нет новых непрочитанных сообщений. Скачать торрент Проверен 13 часов: Тайные солдаты Бенгази / 13 Hours (2016) BDRip 720p | Лицензия

в форуме 720p | 1080p, Размер: 7.95 ГБ, Здоровье: 100%

Гость

0
72|16

36
216

26 авг 2016, 22:00

Гость Перейти к последнему сообщению

В этой теме нет новых непрочитанных сообщений. Скачать торрент Проверен Последние часы / These Final Hours (2013) BDRip 1080p | L1

в форуме 720p | 1080p, Размер: 7.39 ГБ, Здоровье: 100%

Гость

0
403|339

39
484

19 дек 2014, 22:02

Гость Перейти к последнему сообщению

В этой теме нет новых непрочитанных сообщений. Скачать торрент Проверен И грянул шторм / The Finest Hours (2016) BDRip

в форуме Боевики, Размер: 2.18 ГБ, Здоровье: 100%

Гость

0
47|10

96
50

20 ноя 2016, 10:04

Гость Перейти к последнему сообщению

В этой теме нет новых непрочитанных сообщений. Скачать торрент Проверен Побеждая время / Hours (2013) BDRip | Лицензия

в форуме Триллеры, Размер: 1.45 ГБ, Здоровье: 100%

Anonymous

0
123|9

60
799

25 авг 2014, 00:20

Anonymous Перейти к последнему сообщению



Сейчас этот форум просматривают: нет зарегистрированных пользователей и гости: 1


Вы не можете начинать темы
Вы не можете отвечать на сообщения
Вы не можете редактировать свои сообщения
Вы не можете удалять свои сообщения
Вы не можете добавлять вложения

Перейти:  

!ВНИМАНИЕ!
 Ресурс не предоставляет электронные версии произведений, а занимается лишь коллекционированием и каталогизацией ссылок, присылаемых и публикуемых на форуме нашими читателями. Если вы являетесь правообладателем какого-либо представленного материала и не желаете чтобы ссылка на него находилась в нашем каталоге, свяжитесь с нами и мы незамедлительно удалим её. Файлы для обмена на трекере предоставлены пользователями сайта, и администрация не несёт ответственности за их содержание. Просьба не заливать файлы, защищенные авторскими правами, а также файлы нелегального содержания!