На всех торрентах на трекере установлена скидка на скачивание в размере 100 процентов(а).
 Возможность скачивания торрента НЕ зависит от ограничений при низком ратио, низком аплоаде, требуемом ратио или требуемом аплоаде.


Начать новую тему Ответить на тему
Статистика раздачи
Размер: 7.57 ГБ | Добавлен: 12 май 2013, 20:36 | Скачали: 1
Сидеров: 4  [0 байт/сек]    Личеров: 0  [0 байт/сек]
Пред. тема | След. тема 

Автор
Сообщение

СообщениеДобавлено: 12 май 2013, 20:36 

Название: Детектив Ди и тайна призрачного пламени
Оригинальное название: Di Renjie zhi tongtian diguo (Detective Dee and the Mystery of the Phantom Flame)
Год выпуска: 2010
Жанр: Боевик, триллер, криминал, детектив
Выпущено: Гонконг, Китай, Huayi Brothers Media
Режиссер: Цуй Харк

В фильме снимались: Тони Люн Ка Фай, Дэн Чао, Карина Лау, Ли Бинбин, Энди Лау, Жан-Мишель Касанова, Сос Гароян, Джалин Чжао, Цинь Янь, Джинсхан Лю

Вкратце: 690 год н. э. Династия Тан. В столице Лоян строят гигантскую буддийскую Ступу, где должны будут короновать первую китайскую императрицу Ву Цзэтянь. Однако в городе начинают происходить странные события, угрожающие сорвать торжество. И после того как несколько человек публично сжигают себя, императрица решает начать расследование, для чего назначает верховным судьей Ди Жэньцзе - человека, которого она же за семь лет до этого отправила в тюрьму по обвинению в несогласии с режимом (он был, в частности, недоволен тем, что трон покойного императора заняла его жена).



Качество: BDRip 720p
Формат: mkv
Продолжительность: 02:03:40
Перевод: Профессиональный многоголосый, авторский одноголосый, любительский одноголосый
Субтитры: Русские, английские

Видео: MPEG-4 AVC, 3274 Кбит/с, 1280x546
Аудио 1: русский, 48 kHz, AC3, 6 ch, 448 kbps avg [Профессиональный многоголосый, R5]
Аудио 2: русский, 48 kHz, AC3, 6 ch, 640 kbps avg Юрий Сербин [Авторский одноголосый]
Аудио 3: русский, 48 kHz, AC3, 6 ch, 640 kbps avg Тим Вагнер, перевод - Андрей Кравчук [Любительский одноголосый]
Субтитры 1: русские (СinemaSet)
Субтитры 2: английские

Внешние файлы
Аудио: русский, 48 kHz, DTS, 6 ch, 1509 kbps avg Юрий Сербин [Авторский одноголосый]
Аудио: русский, 48 kHz, DTS, 6 ch, 1509 kbps avg Тим Вагнер, перевод - Андрей Кравчук [Любительский одноголосый]
Аудио: китайский, 48 kHz, AC3, 6 ch, 640 kbps avg [Оригинал]





---[NoImage] avs [info]: 1280x546p 1:1 @ 24/1 fps (cfr)
---[NoImage] x264 [warning]: --ssim used with psy on: results will be invalid!
---[NoImage] x264 [warning]: --tune ssim should be used if attempting to benchmark ssim!
---[NoImage] x264 [info]: using SAR=1/1
---[NoImage] x264 [info]: using cpu capabilities: MMX2 SSE2Fast SSSE3 SSE4.2
---[NoImage] x264 [info]: profile High, level 4.1
---[NoImage]
---[NoImage] x264 [info]: frame I:1569 Avg QP:16.37 size: 78108
---[NoImage] x264 [info]: frame P:40036 Avg QP:17.74 size: 32530
---[NoImage] x264 [info]: frame B:136474 Avg QP:19.87 size: 12482
---[NoImage] x264 [info]: consecutive B-frames: 2.6% 2.9% 7.3% 31.9% 11.7% 26.1% 5.1% 7.5% 4.9%
---[NoImage] x264 [info]: mb I I16..4: 10.9% 67.0% 22.1%
---[NoImage] x264 [info]: mb P I16..4: 3.5% 15.9% 2.5% P16..4: 35.3% 23.5% 11.0% 0.0% 0.0% skip: 8.3%
---[NoImage] x264 [info]: mb B I16..4: 0.3% 1.4% 0.3% B16..8: 43.4% 12.7% 3.1% direct: 7.1% skip:31.7% L0:43.6% L1:46.1% BI:10.2%
---[NoImage] x264 [info]: 8x8 transform intra:71.5% inter:59.8%
---[NoImage] x264 [info]: coded y,uvDC,uvAC intra: 78.3% 81.2% 60.2% inter: 29.1% 27.7% 3.6%
---[NoImage] x264 [info]: i16 v,h,dc,p: 61% 13% 5% 21%
---[NoImage] x264 [info]: i8 v,h,dc,ddl,ddr,vr,hd,vl,hu: 12% 8% 8% 9% 13% 14% 12% 12% 12%
---[NoImage] x264 [info]: i4 v,h,dc,ddl,ddr,vr,hd,vl,hu: 20% 10% 5% 8% 13% 13% 11% 10% 11%
---[NoImage] x264 [info]: i8c dc,h,v,p: 44% 21% 19% 15%
---[NoImage] x264 [info]: Weighted P-Frames: Y:12.0% UV:7.5%
---[NoImage] x264 [info]: ref P L0: 46.7% 12.0% 18.0% 6.5% 5.4% 3.7% 3.4% 1.9% 2.0% 0.4% 0.0%
---[NoImage] x264 [info]: ref B L0: 71.0% 12.7% 6.7% 3.5% 2.5% 2.1% 1.2% 0.4%
---[NoImage] x264 [info]: ref B L1: 92.5% 7.5%
---[NoImage] x264 [info]: SSIM Mean Y:0.9829322 (17.678db)
---[NoImage] x264 [info]: kb/s:3372.98
---[NoImage] encoded 178079 frames, 7.43 fps, 3372.98 kb/s
--[Information] Final statistics
---[Information] [27.03.2013 18:50:15] Constant Quality Mode: Quality 19 computed...
---[Information] [27.03.2013 18:50:15] Video Bitrate Obtained (approximate): 3374 kbit/s
--[Information] [27.03.2013 18:50:15] MediaInfo
---[Information] File: E:RipDetektiv.Di.2010.x264.BDRipDetektiv.Di.2010.x264.BDRip.720p.mkv
Общее
Полное имя : E:VideoDetektiv.Di.2010.x264.BDRip.720pDetektiv.Di.2010.AVO.rus.Ю.Сербин.dts
Формат : DTS
Формат/Информация : Digital Theater Systems
Размер файла : 1,30 Гбайт
Продолжительность : 2 ч. 3 м.
Режим общего битрейта : Постоянный
Общий поток : 1509 Кбит/сек

Аудио
Формат : DTS
Формат/Информация : Digital Theater Systems
Режим : 16
Параметр Endianness формата : Big
Продолжительность : 2 ч. 3 м.
Вид битрейта : Постоянный
Битрейт : 1509 Кбит/сек
Каналы : 6 каналов
Расположение каналов : Front: L C R, Side: L R, LFE
Частота : 48,0 КГц
Битовая глубина : 16 бит
Метод сжатия : С потерями
Размер потока : 1,30 Гбайт (100%)

Общее
Полное имя : E:VideoDetektiv.Di.2010.x264.BDRip.720pDetektiv.Di.2010.Original.chi.ac3
Формат : AC-3
Формат/Информация : Audio Coding 3
Размер файла : 566 Мбайт
Продолжительность : 2 ч. 3 м.
Режим общего битрейта : Постоянный
Общий поток : 640 Кбит/сек

Аудио
Формат : AC-3
Формат/Информация : Audio Coding 3
Расширение режима : CM (complete main)
Параметр Endianness формата : Big
Продолжительность : 2 ч. 3 м.
Вид битрейта : Постоянный
Битрейт : 640 Кбит/сек
Каналы : 6 каналов
Расположение каналов : Front: L C R, Side: L R, LFE
Частота : 48,0 КГц
Битовая глубина : 16 бит
Метод сжатия : С потерями
Размер потока : 566 Мбайт (100%)

Общее
Полное имя : E:VideoDetektiv.Di.2010.x264.BDRip.720pDetektiv.Di.2010.VO.rus.Т.Вагнер, любительский (текст - Андрей Кравчук).dts
Формат : DTS
Формат/Информация : Digital Theater Systems
Размер файла : 1,30 Гбайт
Продолжительность : 2 ч. 3 м.
Режим общего битрейта : Постоянный
Общий поток : 1509 Кбит/сек

Аудио
Формат : DTS
Формат/Информация : Digital Theater Systems
Режим : 16
Параметр Endianness формата : Big
Продолжительность : 2 ч. 3 м.
Вид битрейта : Постоянный
Битрейт : 1509 Кбит/сек
Каналы : 6 каналов
Расположение каналов : Front: L C R, Side: L R, LFE
Частота : 48,0 КГц
Битовая глубина : 16 бит
Метод сжатия : С потерями
Размер потока : 1,30 Гбайт (100%)

Общее
Уникальный идентификатор : 207136425833298437428254610211868303962 (0x9BD506463190966085A86DB4F6E8E25A)
Полное имя : E:VideoDetektiv.Di.2010.x264.BDRip.720pDetektiv.Di.2010.x264.BDRip.720p.mkv
Формат : Matroska
Версия формата : Version 4 / Version 2
Размер файла : 4,41 Гбайт
Продолжительность : 2 ч. 3 м.
Общий поток : 5103 Кбит/сек
Название фильма : Детектив Ди и тайна призрачного пламени / Di Renjie / 2010 / BDRip -- STarankov
Дата кодирования : UTC 2010-02-22 21:41:31
Программа кодирования : mkvmerge v5.9.0 ('On The Loose') built on Dec 9 2012 15:37:01
Библиотека кодирования : libebml v1.3.0 + libmatroska v1.4.0

Видео
Идентификатор : 1
Формат : AVC
Формат/Информация : Advanced Video Codec
Профиль формата : High@L4.1
Параметр CABAC формата : Да
Параметр ReFrames формата : 9 кадров
Идентификатор кодека : V_MPEG4/ISO/AVC
Продолжительность : 2 ч. 3 м.
Битрейт : 3274 Кбит/сек
Ширина : 1280 пикселей
Высота : 546 пикселей
Соотношение сторон : 2,35:1
Режим частоты кадров : Постоянный
Частота кадров : 24,000 кадра/сек
Цветовое пространство : YUV
Субдискретизация насыщенности : 4:2:0
Битовая глубина : 8 бит
Тип развёртки : Прогрессивная
Бит/(Пиксели*Кадры) : 0.195
Размер потока : 2,83 Гбайт (64%)
Библиотека кодирования : x264 core 130 r2273 b3065e6
Настройки программы : cabac=1 / ref=9 / deblock=1:-1:-1 / analyse=0x3:0x113 / me=umh / subme=9 / psy=1 / psy_rd=1.00:0.15 / mixed_ref=1 / me_range=24 / chroma_me=1 / trellis=2 / 8x8dct=1 / cqm=0 / deadzone=21,11 / fast_pskip=1 / chroma_qp_offset=-3 / threads=6 / lookahead_threads=1 / sliced_threads=0 / nr=0 / decimate=1 / interlaced=0 / bluray_compat=0 / constrained_intra=0 / bframes=8 / b_pyramid=2 / b_adapt=2 / b_bias=0 / direct=1 / weightb=0 / open_gop=0 / weightp=2 / keyint=230 / keyint_min=23 / scenecut=40 / intra_refresh=0 / rc=crf / mbtree=0 / crf=19.0 / qcomp=0.60 / qpmin=0 / qpmax=69 / qpstep=4 / ip_ratio=1.40 / pb_ratio=1.30 / aq=1:1.00
Язык : Chinese
Default : Да
Forced : Нет

Аудио #1
Идентификатор : 2
Формат : AC-3
Формат/Информация : Audio Coding 3
Расширение режима : CM (complete main)
Параметр Endianness формата : Big
Идентификатор кодека : A_AC3
Продолжительность : 2 ч. 3 м.
Вид битрейта : Постоянный
Битрейт : 448 Кбит/сек
Каналы : 6 каналов
Расположение каналов : Front: L C R, Side: L R, LFE
Частота : 48,0 КГц
Битовая глубина : 16 бит
Метод сжатия : С потерями
Размер потока : 396 Мбайт (9%)
Заголовок : MVO (R5)
Язык : Russian
Default : Да
Forced : Нет

Аудио #2
Идентификатор : 3
Формат : AC-3
Формат/Информация : Audio Coding 3
Расширение режима : CM (complete main)
Параметр Endianness формата : Big
Идентификатор кодека : A_AC3
Продолжительность : 2 ч. 3 м.
Вид битрейта : Постоянный
Битрейт : 640 Кбит/сек
Каналы : 6 каналов
Расположение каналов : Front: L C R, Side: L R, LFE
Частота : 48,0 КГц
Битовая глубина : 16 бит
Метод сжатия : С потерями
Размер потока : 566 Мбайт (13%)
Заголовок : AVO (Юрий Сербин)
Язык : Russian
Default : Нет
Forced : Нет

Аудио #3
Идентификатор : 4
Формат : AC-3
Формат/Информация : Audio Coding 3
Расширение режима : CM (complete main)
Параметр Endianness формата : Big
Идентификатор кодека : A_AC3
Продолжительность : 2 ч. 3 м.
Вид битрейта : Постоянный
Битрейт : 640 Кбит/сек
Каналы : 6 каналов
Расположение каналов : Front: L C R, Side: L R, LFE
Частота : 48,0 КГц
Битовая глубина : 16 бит
Метод сжатия : С потерями
Размер потока : 566 Мбайт (13%)
Заголовок : VO (Тим Вагнер, текст - Андрей Кравчук)
Язык : Russian
Default : Нет
Forced : Нет

Текст #1
Идентификатор : 5
Формат : UTF-8
Идентификатор кодека : S_TEXT/UTF8
Идентификатор кодека/Информация : UTF-8 Plain Text
Заголовок : русский
Язык : Russian
Default : Нет
Forced : Нет

Текст #2
Идентификатор : 6
Формат : UTF-8
Идентификатор кодека : S_TEXT/UTF8
Идентификатор кодека/Информация : UTF-8 Plain Text
Заголовок : английский
Default : Нет
Forced : Нет
загрузка...
Правила, инструкции, FAQ!!!
Торрент  Добавлен [12 май 2013, 20:36] Скачать торрент
Скачать торрент
[ Размер 19.58 КБ / Просмотров 6 ]

Статус  
 
Размер  7.57 ГБ
Приватный: Нет (DHT включён)
.torrent скачан  1
Как залить торрент? | Как скачать Torrent? | Как смотреть и слушать онлайн?  


     Отправить личное сообщение
   
Страница 1 из 1
Показать сообщения за:  Поле сортировки  
Начать новую тему Ответить на тему

   Похожие торренты   Автор   Ответы   Просмотры   Последнее сообщение 
В этой теме нет новых непрочитанных сообщений. Скачать торрент Проверен Тайна замка тамплиеров / La commanderie [s01] (2010) BDRip 720p

в форуме Зарубежные сериалы, Размер: 19.33 ГБ, Здоровье: 100%

Anonymous

0
1|1

95
5

11 июн 2014, 22:53

Anonymous Перейти к последнему сообщению

В этой теме нет новых непрочитанных сообщений. Скачать торрент Тайна в его глазах / Тайна в её глазах / The Secret in Their Eyes / El secreto de sus ojos (Хуан Хосе Кампанелла / Juan José Campanella) [2009, Испания, Аргентина, драма, мелодрама, детектив, BDRip] MVO

в форуме Драмы, Мелодрамы, Размер: 763.66 МБ, Здоровье: 0%

Anonymous

0
0|0

50
0

14 фев 2014, 07:46

Anonymous Перейти к последнему сообщению

В этой теме нет новых непрочитанных сообщений. Скачать торрент Тайна в его глазах / Тайна в её глазах / The Secret in Their Eyes / El secreto de sus ojos (Хуан Хосе Кампанелла / Juan José Campanella) [2009, Испания, Аргентина, драма, мелодрама, детектив, BDRip] MVO

в форуме Драмы, Мелодрамы, Размер: 1.45 ГБ, Здоровье: 0%

Anonymous

0
0|0

53
0

04 фев 2014, 21:25

Anonymous Перейти к последнему сообщению

В этой теме нет новых непрочитанных сообщений. Скачать торрент Проверен Английский детектив: лучшее - Филлис Дороти Джеймс - Тайна Найтингейла [2010, DjVu, RUS]

в форуме Детективы и Боевики, Размер: 9.12 МБ, Здоровье: 100%

Anonymous

0
8|2

6
0

08 сен 2016, 21:14

Anonymous Перейти к последнему сообщению

В этой теме нет новых непрочитанных сообщений. Скачать торрент Тайна Рагнарока / Gåten Ragnarok (2013) BDRip 720p | L1

в форуме 720p | 1080p, Размер: 4.5 ГБ, Здоровье: 100%

Anonymous

0
5|0

31
12

26 фев 2014, 21:23

Anonymous Перейти к последнему сообщению



Сейчас этот форум просматривают: нет зарегистрированных пользователей и гости: 2


Вы не можете начинать темы
Вы не можете отвечать на сообщения
Вы не можете редактировать свои сообщения
Вы не можете удалять свои сообщения
Вы не можете добавлять вложения

Перейти:  

!ВНИМАНИЕ!
 Ресурс не предоставляет электронные версии произведений, а занимается лишь коллекционированием и каталогизацией ссылок, присылаемых и публикуемых на форуме нашими читателями. Если вы являетесь правообладателем какого-либо представленного материала и не желаете чтобы ссылка на него находилась в нашем каталоге, свяжитесь с нами и мы незамедлительно удалим её. Файлы для обмена на трекере предоставлены пользователями сайта, и администрация не несёт ответственности за их содержание. Просьба не заливать файлы, защищенные авторскими правами, а также файлы нелегального содержания!