На всех торрентах на трекере установлена скидка на скачивание в размере 100 процентов(а).
 Возможность скачивания торрента НЕ зависит от ограничений при низком ратио, низком аплоаде, требуемом ратио или требуемом аплоаде.


Начать новую тему Ответить на тему
Статистика раздачи
Размер: 2.19 ГБ | Добавлен: 12 май 2013, 10:04 | Скачали: 0
Сидеров: 0  [0 байт/сек]    Личеров: 0  [0 байт/сек]
Пред. тема | След. тема 

Автор
Сообщение

СообщениеДобавлено: 12 май 2013, 10:04 

Год выпуска: 2012
Производство: США / Air-Edel Associates, Crime Scene Pictures, Michael Lobell Productions
Жанр: Комедия, криминал
Продолжительность: 01:29:11
Перевод: Профессиональный (полное дублирование) чистый звук
Субтитры: Английские |отключаемые|
Навигация по главам: Есть


Режиссер: Майкл Хоффман

В фильме снимались: Колин Ферт, Кэмерон Диаз, Алан Рикман, Стэнли Туччи, Клорис Личмен, Том Кортни, Сенем Темиз, Анна Скеллерн, Того Игава, Эрика ЛаРоуз, Грег Беннетт, Джерард Хоран, Чилли Мо, Сара Голдберг, Екатерина Ботциу, Сильвия Крастан, Грэхэм Керри, Танрох Ишида, Симона Либман, Масаси Фудзимото, Гари Свон, Мартин Пул, Филип Дехэни, Фрэнк Стоун, Майк Ноубл, Мартин Мур, Спенсер Камминс, Кейд Борек, Люк Борек

Вкратце: История лондонского любителя искусств, задумавшего обмануть богатого коллекционера и заставить его купить фальшивую картину Моне. Для этого он договаривается с разбитной девахой из Техаса. Героиня не имеет никакого отношения к искусству — она работает на родео. Однако она будет выдавать себя за женщину, чей отец раздобыл картину в конце Второй мировой войны.






Качество: BDRip 720p [Blu-Ray Remux]
Формат: MKV
Видео: H.264, 1280x544 (2,35:1), 23.976 fps, 2613 Kbps, 0.157 bit/pixel
Аудио#1: 48 kHz, AC3 Dolby Digital, 3/2 (L,C,R,l,r) + LFE ch, 448.00 kbps | RUS
Аудио#2: 48 kHz, AC3 Dolby Digital, 3/2 (L,C,R,l,r) + LFE ch, 448.00 kbps | ENG


Автор рипа:


Общее
Уникальный идентификатор : 196625842197457005706041674399093297068 (0x93ECC27DDA0771728566622996170FAC)
Полное имя : Gambit.2012.D.BDRip.720p.potroks.mkv
Формат : Matroska
Версия формата : Version 2
Размер файла : 2,19 Гбайт
Продолжительность : 1 ч. 29 м.
Общий поток : 3511 Кбит/сек
Название фильма : -=POTROKS=-
Дата кодирования : UTC 2013-05-12 00:02:27
Программа кодирования : mkvmerge v5.9.0 ('On The Loose') built on Dec 15 2012 16:39:58
Библиотека кодирования : libebml v1.3.0 + libmatroska v1.4.0

Видео
Идентификатор : 1
Формат : AVC
Формат/Информация : Advanced Video Codec
Профиль формата : High@L4.1
Параметр CABAC формата : Да
Параметр ReFrames формата : 11 кадров
Идентификатор кодека : V_MPEG4/ISO/AVC
Продолжительность : 1 ч. 29 м.
Битрейт : 2613 Кбит/сек
Ширина : 1280 пикселей
Высота : 544 пикселя
Соотношение сторон : 2,35:1
Режим частоты кадров : Постоянный
Частота кадров : 23,976 кадра/сек
Цветовое пространство : YUV
Субдискретизация насыщенности : 4:2:0
Битовая глубина : 8 бит
Тип развёртки : Прогрессивная
Бит/(Пиксели*Кадры) : 0.157
Размер потока : 1,59 Гбайт (72%)
Заголовок : Gambit
Библиотека кодирования : x264 core 125 r2208 d9d2288
Настройки программы : cabac=1 / ref=11 / deblock=1:-2:-1 / analyse=0x3:0x133 / me=umh / subme=11 / psy=1 / psy_rd=1.12:0.15 / mixed_ref=1 / me_range=32 / chroma_me=1 / trellis=2 / 8x8dct=1 / cqm=0 / deadzone=21,11 / fast_pskip=0 / chroma_qp_offset=-3 / threads=9 / lookahead_threads=1 / sliced_threads=0 / nr=0 / decimate=1 / interlaced=0 / bluray_compat=0 / constrained_intra=0 / bframes=12 / b_pyramid=2 / b_adapt=2 / b_bias=0 / direct=3 / weightb=1 / open_gop=0 / weightp=2 / keyint=240 / keyint_min=23 / scenecut=40 / intra_refresh=0 / rc_lookahead=150 / rc=2pass / mbtree=1 / bitrate=2613 / ratetol=1.0 / qcomp=0.73 / qpmin=0 / qpmax=69 / qpstep=4 / cplxblur=20.0 / qblur=0.5 / vbv_maxrate=50000 / vbv_bufsize=62500 / nal_hrd=none / ip_ratio=1.35 / aq=1:0.80
Язык : English
Default : Да
Forced : Нет

Аудио #1
Идентификатор : 2
Формат : AC-3
Формат/Информация : Audio Coding 3
Расширение режима : CM (complete main)
Параметр Endianness формата : Big
Идентификатор кодека : A_AC3
Продолжительность : 1 ч. 29 м.
Вид битрейта : Постоянный
Битрейт : 448 Кбит/сек
Каналы : 6 каналов
Расположение каналов : Front: L C R, Side: L R, LFE
Частота : 48,0 КГц
Битовая глубина : 16 бит
Метод сжатия : С потерями
Размер потока : 286 Мбайт (13%)
Заголовок : чистый звук
Язык : Russian
Default : Да
Forced : Да

Аудио #2
Идентификатор : 3
Формат : AC-3
Формат/Информация : Audio Coding 3
Расширение режима : CM (complete main)
Параметр Endianness формата : Big
Идентификатор кодека : A_AC3
Продолжительность : 1 ч. 29 м.
Вид битрейта : Постоянный
Битрейт : 448 Кбит/сек
Каналы : 6 каналов
Расположение каналов : Front: L C R, Side: L R, LFE
Частота : 48,0 КГц
Битовая глубина : 16 бит
Метод сжатия : С потерями
Размер потока : 286 Мбайт (13%)
Язык : English
Default : Нет
Forced : Нет

Текст
Идентификатор : 4
Формат : UTF-8
Идентификатор кодека : S_TEXT/UTF8
Идентификатор кодека/Информация : UTF-8 Plain Text
Язык : English
Default : Нет
Forced : Нет

Меню
00:00:00.000 : en:Chapter 1
00:06:52.161 : en:Chapter 2
00:14:35.291 : en:Chapter 3
00:21:59.860 : en:Chapter 4
00:30:34.791 : en:Chapter 5
00:36:29.061 : en:Chapter 6
00:44:28.999 : en:Chapter 7
00:52:37.737 : en:Chapter 8
01:02:10.017 : en:Chapter 9
01:11:15.938 : en:Chapter 10
01:18:32.165 : en:Chapter 11
01:23:34.009 : en:Chapter 12
avs [info]: 1280x544p 1:1 @ 2500000/104271 fps (cfr)
x264 [info]: using SAR=1/1
x264 [info]: using cpu capabilities: MMX2 SSE2Fast SSSE3 FastShuffle SSE4.2 AVX XOP FMA4 SSEMisalign LZCNT
x264 [info]: profile High, level 4.1
x264 [info]: frame I:1081 Avg QP:16.95 size: 80156
x264 [info]: frame P:26990 Avg QP:17.88 size: 30598
x264 [info]: frame B:100224 Avg QP:20.44 size: 8334
x264 [info]: consecutive B-frames: 1.7% 2.1% 8.0% 17.9% 16.6% 46.7% 4.6% 0.5% 0.7% 0.4% 0.3% 0.1% 0.3%
x264 [info]: mb I I16..4: 13.8% 64.1% 22.1%
x264 [info]: mb P I16..4: 1.1% 6.1% 1.3% P16..4: 30.0% 33.6% 12.4% 2.6% 0.4% skip:12.6%
x264 [info]: mb B I16..4: 0.2% 0.6% 0.1% B16..8: 33.7% 17.6% 2.6% direct: 4.0% skip:41.4% L0:42.2% L1:45.1% BI:12.6%
x264 [info]: 8x8 transform intra:69.1% inter:59.3%
x264 [info]: direct mvs spatial:96.8% temporal:3.2%
x264 [info]: coded y,uvDC,uvAC intra: 75.7% 80.3% 63.2% inter: 17.8% 20.4% 6.8%
x264 [info]: i16 v,h,dc,p: 46% 16% 6% 32%
x264 [info]: i8 v,h,dc,ddl,ddr,vr,hd,vl,hu: 10% 8% 9% 9% 13% 13% 12% 12% 13%
x264 [info]: i4 v,h,dc,ddl,ddr,vr,hd,vl,hu: 13% 11% 8% 8% 13% 13% 12% 10% 12%
x264 [info]: i8c dc,h,v,p: 42% 23% 19% 16%
x264 [info]: Weighted P-Frames: Y:1.9% UV:0.6%
x264 [info]: ref P L0: 46.6% 9.0% 17.8% 6.5% 5.5% 4.1% 3.7% 1.9% 1.8% 1.5% 1.5% 0.2% 0.0%
x264 [info]: ref B L0: 77.2% 10.4% 4.8% 2.3% 1.6% 1.3% 1.1% 0.6% 0.4% 0.2%
x264 [info]: ref B L1: 93.4% 6.6%
x264 [info]: kb/s:2612.92

x264 [total]: encoded 128295 frames, 4.95 fps, 2612.92 kb/s

загрузка...
Правила, инструкции, FAQ!!!
Торрент  Добавлен [12 май 2013, 10:04] Скачать торрент
Скачать торрент
[ Размер 11.44 КБ / Просмотров 3 ]

Статус  
 
Размер  2.19 ГБ
Приватный: Нет (DHT включён)
.torrent скачан  0
Как залить торрент? | Как скачать Torrent? | Как смотреть и слушать онлайн?  


     Отправить личное сообщение
   
Страница 1 из 1
Показать сообщения за:  Поле сортировки  
Начать новую тему Ответить на тему

   Похожие торренты   Автор   Ответы   Просмотры   Последнее сообщение 
В этой теме нет новых непрочитанных сообщений. Скачать торрент Проверен Рио 2 / Rio 2 (2014) BDRip 720p | Чистый звук

в форуме Зарубежные мультфильмы (HD Video), Размер: 4.64 ГБ, Здоровье: 0%

Anonymous

0
0|0

904
0

28 июн 2014, 17:39

Anonymous Перейти к последнему сообщению

В этой теме нет новых непрочитанных сообщений. Ной / Noah (2014) BDRip 720p | Чистый звук

в форуме Новинки кино, Размер: 6.88 ГБ, Здоровье: 100%

Anonymous

0
65|1

408
10

07 июл 2014, 15:21

Anonymous Перейти к последнему сообщению

В этой теме нет новых непрочитанных сообщений. Скачать торрент Starперцы / Last Vegas (2013) BDRip 720p | Чистый звук

в форуме 720p | 1080p, Размер: 6.39 ГБ, Здоровье: 0%

Anonymous

0
0|0

31
0

17 фев 2014, 22:09

Anonymous Перейти к последнему сообщению

В этой теме нет новых непрочитанных сообщений. Скачать торрент Проверен Джезабель / Jessabelle (2014) BDRip 720p | Чистый звук

в форуме 720p | 1080p, Размер: 6.56 ГБ, Здоровье: 100%

Anonymous

0
936|391

167
3046

03 апр 2015, 20:41

Anonymous Перейти к последнему сообщению

В этой теме нет новых непрочитанных сообщений. 47 ронинов / 47 Ronin (2013) BDRip 720p | Чистый звук

в форуме Новинки кино, Размер: 5.67 ГБ, Здоровье: 100%

Anonymous

0
337|1

129
4202

20 мар 2014, 20:12

Anonymous Перейти к последнему сообщению



Сейчас этот форум просматривают: нет зарегистрированных пользователей и гости: 1


Вы не можете начинать темы
Вы не можете отвечать на сообщения
Вы не можете редактировать свои сообщения
Вы не можете удалять свои сообщения
Вы не можете добавлять вложения

Перейти:  

!ВНИМАНИЕ!
 Ресурс не предоставляет электронные версии произведений, а занимается лишь коллекционированием и каталогизацией ссылок, присылаемых и публикуемых на форуме нашими читателями. Если вы являетесь правообладателем какого-либо представленного материала и не желаете чтобы ссылка на него находилась в нашем каталоге, свяжитесь с нами и мы незамедлительно удалим её. Файлы для обмена на трекере предоставлены пользователями сайта, и администрация не несёт ответственности за их содержание. Просьба не заливать файлы, защищенные авторскими правами, а также файлы нелегального содержания!