На всех торрентах на трекере установлена скидка на скачивание в размере 100 процентов(а).
 Возможность скачивания торрента НЕ зависит от ограничений при низком ратио, низком аплоаде, требуемом ратио или требуемом аплоаде.


Начать новую тему Ответить на тему
Статистика раздачи
Размер: 7.95 ГБ | Добавлен: 11 май 2013, 18:56 | Скачали: 90
Сидеров: 16  [0 байт/сек]    Личеров: 3  [0 байт/сек]
Пред. тема | След. тема 

Автор
Сообщение

СообщениеДобавлено: 11 май 2013, 18:56 

Название: Пока не сыграл в ящик
Оригинальное название: The Bucket List
Год выхода: 2007
Жанр: Драма, комедия, приключения
Режиссер: Роб Райнер

В фильме снимались: Джек Николсон, Морган Фримен, Шон Хейс, Беверли Тодд, Роб Морроу, Альфонсо Фриман, Роуэна Кинг, Эннтон Берри мл., Верда Бриджес, Дестини Браунридж, Брайан Коуплэнд, Иэн Энтони Дэйл, Дженнифер Дифранческо, Анджела Гарднер, Ноэль Гульеми, Джонатан Эрнандез, Хью Б. Холуб, Андреа Джонсон, Доун Льюис, Джордан Лунд, Ричард МакГонагл, Джонатан Мангум, Карен Маруяма, Эмбер Мид, Никки Новак, Джон О’Брайэн, Серена Ридер, Кристофер Степлтон, Тейлор Энн Томпсон, Алекс Требек, Рой Вонгтама, МаШае Олдермен, Брент Баттлс, Лоурен Кон, Фрэнк Махарадж, Вин Скалли, Джордж Ф. Уотсон

Вкратце:
Именно так решили два больных раком соседа по больничной палате, когда услышали свой приговор. Один из них вспыльчивый миллиардер, а второй эрудированный автомеханик. Они составляют список дел, которые необходимо сделать прежде, чем они сыграют в ящик, и отправляются в кругосветное путешествие, путешествие всей своей жизни. Прыжки с парашютом? Посмотрим. Гонки на раритетных автомобилях? Сделано. Посмотреть на пирамиды? Отлично. Открыть радость жизни прежде, чем станет слишком поздно? Точно!



Выпущено: США, Storyline Entertainment, Two Ton Films, Warner Bros. Pictures, Zadan, Meron Productions
Продолжительность: 01:37:04
Перевод: Дублированный, Одноголосый закадровый, Ю.Немахов, Оригинальная аудиодорожка
Формат: mkv
Качество: BDRip 1080p (исходник Blu-ray Disc)
Видео: 1920x1080, 10.1 мбит/сек, 23.976 кадр/сек, AVC, x264, 0.202 Бит/(Пиксели*Кадры), 2-pass
Аудио: AC-3, 384 Кбит/сек, 6 канала(ов), 48,0 КГц - Дублированный, R5
Аудио: AC-3, 640 Кбит/сек, 6 канала(ов), 48,0 КГц - Одноголосый закадровый, Ю.Немахов
Аудио: AC-3, 640 Кбит/сек, 6 канала(ов), 48,0 КГц - English
Чаптеры: есть





Format : Matroska
Format version : Version 4 / Version 2
File size : 7.95 GiB
Duration : 1h 37mn
Overall bit rate : 11.7 Mbps
Movie name : Пока не сыграл в ящик.(2007).BDRip.1080p.от NoLimits-Team
Encoded date : UTC 2013-05-11 09:02:34
Writing application : mkvmerge v6.2.0 ('Promised Land') built on Apr 28 2013 12:22:01
Writing library : libebml v1.3.0 + libmatroska v1.4.0

Video
ID : 1
Format : AVC
Format/Info : Advanced Video Codec
Format profile : High@L4.1
Format settings, CABAC : Yes
Format settings, ReFrames : 4 frames
Codec ID : V_MPEG4/ISO/AVC
Duration : 1h 37mn
Bit rate : 10.1 Mbps
Width : 1 920 pixels
Height : 1 080 pixels
Display aspect ratio : 16:9
Frame rate mode : Constant
Frame rate : 23.976 fps
Color space : YUV
Chroma subsampling : 4:2:0
Bit depth : 8 bits
Scan type : Progressive
Bits/(Pixel*Frame) : 0.202
Stream size : 6.66 GiB (84%)
Title : Пока не сыграл в ящик.(2007).BDRip.1080p.от NoLimits-Team
Writing library : x264 core 132 r2310 76a5c3a
Encoding settings : cabac=1 / ref=4 / deblock=1:0:0 / analyse=0x3:0x113 / me=umh / subme=11 / psy=1 / psy_rd=1.00:0.10 / mixed_ref=1 / me_range=32 / chroma_me=1 / trellis=2 / 8x8dct=1 / cqm=0 / deadzone=21,11 / fast_pskip=0 / chroma_qp_offset=-3 / threads=6 / lookahead_threads=1 / sliced_threads=0 / nr=0 / decimate=0 / interlaced=0 / bluray_compat=0 / constrained_intra=0 / bframes=5 / b_pyramid=2 / b_adapt=2 / b_bias=0 / direct=3 / weightb=1 / open_gop=0 / weightp=2 / keyint=240 / keyint_min=23 / scenecut=40 / intra_refresh=0 / rc_lookahead=60 / rc=2pass / mbtree=1 / bitrate=10061 / ratetol=1.0 / qcomp=0.60 / qpmin=0 / qpmax=69 / qpstep=4 / cplxblur=20.0 / qblur=0.5 / ip_ratio=1.40 / aq=1:0.95
Language : English
Default : Yes
Forced : No

Audio #1
ID : 2
Format : AC-3
Format/Info : Audio Coding 3
Mode extension : CM (complete main)
Format settings, Endianness : Big
Codec ID : A_AC3
Duration : 1h 37mn
Bit rate mode : Constant
Bit rate : 384 Kbps
Channel(s) : 6 channels
Channel positions : Front: L C R, Side: L R, LFE
Sampling rate : 48.0 KHz
Bit depth : 16 bits
Compression mode : Lossy
Stream size : 267 MiB (3%)
Title : Дублированный, R5
Language : Russian
Default : Yes
Forced : No

Audio #2
ID : 3
Format : AC-3
Format/Info : Audio Coding 3
Mode extension : CM (complete main)
Format settings, Endianness : Big
Codec ID : A_AC3
Duration : 1h 37mn
Bit rate mode : Constant
Bit rate : 640 Kbps
Channel(s) : 6 channels
Channel positions : Front: L C R, Side: L R, LFE
Sampling rate : 48.0 KHz
Bit depth : 16 bits
Compression mode : Lossy
Stream size : 444 MiB (5%)
Title : Одноголосый закадровый, Ю.Немахов
Language : Russian
Default : No
Forced : No

Audio #3
ID : 4
Format : AC-3
Format/Info : Audio Coding 3
Mode extension : CM (complete main)
Format settings, Endianness : Big
Codec ID : A_AC3
Duration : 1h 37mn
Bit rate mode : Constant
Bit rate : 640 Kbps
Channel(s) : 6 channels
Channel positions : Front: L C R, Side: L R, LFE
Sampling rate : 48.0 KHz
Bit depth : 16 bits
Compression mode : Lossy
Stream size : 444 MiB (5%)
Title : English
Language : English
Default : No
Forced : No

Menu
00:00:00.000 : en:Chapter 01
00:01:30.090 : en:Chapter 02
00:06:09.702 : en:Chapter 03
00:12:38.424 : en:Chapter 04
00:17:06.358 : en:Chapter 05
00:23:10.722 : en:Chapter 06
00:29:30.935 : en:Chapter 07
00:35:30.128 : en:Chapter 08
00:38:45.489 : en:Chapter 09
00:42:03.687 : en:Chapter 10
00:45:58.755 : en:Chapter 11
00:49:39.476 : en:Chapter 12
00:53:04.681 : en:Chapter 13
00:57:50.133 : en:Chapter 14
01:03:42.652 : en:Chapter 15
01:06:43.666 : en:Chapter 16
01:09:18.988 : en:Chapter 17
01:14:11.113 : en:Chapter 18
01:16:35.924 : en:Chapter 19
01:20:54.349 : en:Chapter 20
01:23:23.665 : en:Chapter 21
01:26:55.710 : en:Chapter 22
01:32:21.536 : en:Chapter 23


Релиз Группа:
загрузка...
Правила, инструкции, FAQ!!!
Торрент  Добавлен [11 май 2013, 18:56] Скачать торрент
Скачать торрент
[ Размер 40.2 КБ / Просмотров 5 ]

Статус  
 
Размер  7.95 ГБ
Приватный: Нет (DHT включён)
.torrent скачан  90
Как залить торрент? | Как скачать Torrent? | Как смотреть и слушать онлайн?  


     Отправить личное сообщение
   
Страница 1 из 1
Показать сообщения за:  Поле сортировки  
Начать новую тему Ответить на тему

   Похожие торренты   Автор   Ответы   Просмотры   Последнее сообщение 
В этой теме нет новых непрочитанных сообщений. Скачать торрент Проверен Пока не сыграл в ящик / The Bucket List (2007) BDRip [576p] iPad

в форуме Фильмы для iPod, iPhone, iPad, Размер: 2.06 ГБ, Здоровье: 100%

Anonymous

0
21|1

41
2

13 сен 2015, 01:14

Anonymous Перейти к последнему сообщению

В этой теме нет новых непрочитанных сообщений. Скачать торрент Пока не сыграл в ящик / The Bucket List (Роб Райнер / Rob Reiner) [2007 г., драма, комедия, приключения, BDRip-AVC] Dub

в форуме Комедии, Размер: 1.46 ГБ, Здоровье: 0%

Anonymous

0
0|0

33
0

14 апр 2014, 09:28

Anonymous Перейти к последнему сообщению

В этой теме нет новых непрочитанных сообщений. Скачать торрент Проверен [iPod] Пока не сыграл в ящик / The Bucket List [2007 г., комедия, драма, приключения, HDRip]

в форуме Фильмы для iPod, iPhone, iPad, Размер: 278.91 МБ, Здоровье: 100%

Anonymous

0
8|2

15
0

14 май 2015, 00:04

Anonymous Перейти к последнему сообщению

В этой теме нет новых непрочитанных сообщений. Скачать торрент Проверен (Melodic Hard Rock | Melodic Rock) ABO - Bucket List - 2016, MP3, 320 kbps

в форуме AOR (Melodic Hard Rock, Arena rock), Размер: 90.03 МБ, Здоровье: 0%

Anonymous

0
0|0

2
0

08 окт 2016, 10:36

Anonymous Перейти к последнему сообщению

В этой теме нет новых непрочитанных сообщений. Скачать торрент Проверен (Hard Rock) [LP] [24/192] Rhino Bucket, Rhino Bucket - 1990, FLAC (image+.cue)

в форуме Зарубежный рок (оцифровки), Размер: 1.62 ГБ, Здоровье: 0%

Anonymous

0
0|0

3
1

27 авг 2016, 08:30

Anonymous Перейти к последнему сообщению



Сейчас этот форум просматривают: нет зарегистрированных пользователей и гости: 1


Вы не можете начинать темы
Вы не можете отвечать на сообщения
Вы не можете редактировать свои сообщения
Вы не можете удалять свои сообщения
Вы не можете добавлять вложения

Перейти:  

!ВНИМАНИЕ!
 Ресурс не предоставляет электронные версии произведений, а занимается лишь коллекционированием и каталогизацией ссылок, присылаемых и публикуемых на форуме нашими читателями. Если вы являетесь правообладателем какого-либо представленного материала и не желаете чтобы ссылка на него находилась в нашем каталоге, свяжитесь с нами и мы незамедлительно удалим её. Файлы для обмена на трекере предоставлены пользователями сайта, и администрация не несёт ответственности за их содержание. Просьба не заливать файлы, защищенные авторскими правами, а также файлы нелегального содержания!