На всех торрентах на трекере установлена скидка на скачивание в размере 100 процентов(а).
 Возможность скачивания торрента НЕ зависит от ограничений при низком ратио, низком аплоаде, требуемом ратио или требуемом аплоаде.


Начать новую тему Ответить на тему
Статистика раздачи
Размер: 7.09 ГБ | Добавлен: 11 май 2013, 16:45 | Скачали: 0
Сидеров: 0  [0 байт/сек]    Личеров: 0  [0 байт/сек]
Пред. тема | След. тема 

Автор
Сообщение

СообщениеДобавлено: 11 май 2013, 16:45 

Название: Мамочка-маньячка-убийца
Оригинальное название: Serial Mom
Год выхода: 1994
Жанр: Триллер, комедия, криминал
Режиссер: Джон Уотерс

В фильме снимались: Кэтлин Тернер, Сэм Уотерстон, Рики Лэйк, Мэттью Лиллард, Мэри Джо Кэтлетт, Джастин Уэйлин, Патриция Даннок, Минк Стоул, Патриция Херст, Сюзанн Сомер

Вкратце: Типичная американская семья — как в рекламе. Большой дом в Балтиморе. Мамочка-домохозяйка: милая, любящая и настолько безупречная, что того и гляди запоет. Да, вот еще: когда детишки уходят в школу а муж на работу, она… убивает. С выбором очередной жертвы проблем нет: достаточно отдать предпочтение другой девочке поприятней чем ее дочурка, накричать на ее сына, надеть белые тапочки в День труда, не перемотать пленку на начало видеокассеты и ваши дни сочтены. И уж будьте уверены, разделается она с вами самым изощренным способом...



Страна: США
Студия: Savoy Pictures
Продолжительность: 01:33:46
Перевод: Профессиональный многоголосый

Формат: mkv
Качество: BDRip 1080p
Видео: MPEG-4 AVC, 8554 Кбит/c, 1920x1036, 23.976 кадр/c
Аудио #1: Русский (DTS, 6 ch, 755 Кбит/c) / Профессиональный многоголосый
Аудио #2: Английский (DTS, 6 ch, 1510 Кбит/c)
Субтитры: Русские, английские





Общее
Уникальный идентификатор : 208600951106295455393423955599484129572 (0x9CEF14F1EA31A69B93F0328A19AE1124)
Полное имя : D:Mои раздачиMamochka-manjyachka-ubiyca.1994. BDRip.(1080p)_MediaClub.mkv
Формат : Matroska
Версия формата : Version 2
Размер файла : 7,09 Гбайт
Продолжительность : 1 ч. 33 м.
Общий поток : 10,8 Мбит/сек
Название фильма : Мамочка - маньячка - убийца (MediaClub-kaspr)
Дата кодирования : UTC 2013-05-10 18:19:13
Программа кодирования : mkvmerge v5.7.0 ('The Whirlwind') built on Aug 7 2012 14:11:40
Библиотека кодирования : libebml v1.2.3 + libmatroska v1.3.0

Видео
Идентификатор : 1
Формат : AVC
Формат/Информация : Advanced Video Codec
Профиль формата : High@L4.1
Параметр CABAC формата : Да
Параметр ReFrames формата : 4 кадра
Идентификатор кодека : V_MPEG4/ISO/AVC
Продолжительность : 1 ч. 33 м.
Битрейт : 8554 Кбит/сек
Ширина : 1920 пикселей
Высота : 1036 пикселей
Соотношение сторон : 1,85:1
Режим частоты кадров : Постоянный
Частота кадров : 23,976 кадра/сек
Цветовое пространство : YUV
Субдискретизация насыщенности : 4:2:0
Битовая глубина : 8 бит
Тип развёртки : Прогрессивная
Бит/(Пиксели*Кадры) : 0.179
Размер потока : 5,47 Гбайт (77%)
Заголовок : Мамочка - маньячка - убийца (MediaClub-kaspr)
Библиотека кодирования : x264 core 130 r2273 b3065e6
Настройки программы : cabac=1 / ref=4 / deblock=1:-3:-3 / analyse=0x3:0x133 / me=umh / subme=11 / psy=1 / psy_rd=1.00:0.10 / mixed_ref=1 / me_range=32 / chroma_me=1 / trellis=2 / 8x8dct=1 / cqm=0 / deadzone=21,11 / fast_pskip=0 / chroma_qp_offset=-3 / threads=12 / lookahead_threads=1 / sliced_threads=0 / nr=0 / decimate=0 / interlaced=0 / bluray_compat=0 / constrained_intra=0 / bframes=6 / b_pyramid=2 / b_adapt=2 / b_bias=0 / direct=3 / weightb=1 / open_gop=0 / weightp=2 / keyint=240 / keyint_min=22 / scenecut=40 / intra_refresh=0 / rc=2pass / mbtree=0 / bitrate=8554 / ratetol=1.0 / qcomp=0.60 / qpmin=0 / qpmax=69 / qpstep=4 / cplxblur=20.0 / qblur=0.5 / ip_ratio=1.40 / pb_ratio=1.30 / aq=1:1.00
Default : Да
Forced : Нет

Аудио #1
Идентификатор : 2
Формат : DTS
Формат/Информация : Digital Theater Systems
Идентификатор кодека : A_DTS
Продолжительность : 1 ч. 33 м.
Вид битрейта : Постоянный
Битрейт : 755 Кбит/сек
Каналы : 2 канала
Расположение каналов : Front: L R
Частота : 48,0 КГц
Битовая глубина : 24 бит
Метод сжатия : С потерями
Размер потока : 506 Мбайт (7%)
Заголовок : Профессиональный многоголосый
Язык : Russian
Default : Да
Forced : Нет

Аудио #2
Идентификатор : 3
Формат : DTS
Формат/Информация : Digital Theater Systems
Идентификатор кодека : A_DTS
Продолжительность : 1 ч. 33 м.
Вид битрейта : Постоянный
Битрейт : 1510 Кбит/сек
Каналы : 6 каналов
Расположение каналов : Front: L C R, Side: L R, LFE
Частота : 48,0 КГц
Битовая глубина : 24 бит
Метод сжатия : С потерями
Размер потока : 1013 Мбайт (14%)
Заголовок : Оригинал
Язык : English
Default : Нет
Forced : Нет

Текст #1
Идентификатор : 4
Формат : UTF-8
Идентификатор кодека : S_TEXT/UTF8
Идентификатор кодека/Информация : UTF-8 Plain Text
Язык : Russian
Default : Нет
Forced : Нет

Текст #2
Идентификатор : 5
Формат : UTF-8
Идентификатор кодека : S_TEXT/UTF8
Идентификатор кодека/Информация : UTF-8 Plain Text
Язык : English
Default : Нет
Forced : Нет

Меню
00:00:00.000 : en:Chapter 01
00:05:36.461 : en:Chapter 02
00:11:22.306 : en:Chapter 03
00:15:59.208 : en:Chapter 04
00:21:49.308 : en:Chapter 05
00:26:04.813 : en:Chapter 06
00:31:09.576 : en:Chapter 07
00:37:35.127 : en:Chapter 08
00:42:22.206 : en:Chapter 09
00:48:52.220 : en:Chapter 10
00:53:44.471 : en:Chapter 11
00:56:39.062 : en:Chapter 12
01:05:44.815 : en:Chapter 13
01:10:17.504 : en:Chapter 14
01:16:56.862 : en:Chapter 15
01:21:52.365 : en:Chapter 16
01:26:33.062 : en:Chapter 17
01:29:27.195 : en:Chapter 18

---[NoImage] x264 [info]: frame I:1157 Avg QP:20.31 size:144905
---[NoImage] x264 [info]: frame P:28988 Avg QP:20.99 size: 77510
---[NoImage] x264 [info]: frame B:104760 Avg QP:22.92 size: 33725
---[NoImage] x264 [info]: consecutive B-frames: 2.1% 3.3% 10.9% 10.3% 13.0% 50.5% 10.0%
---[NoImage] x264 [info]: mb I I16..4: 33.8% 0.0% 66.2%
---[NoImage] x264 [info]: mb P I16..4: 51.0% 0.0% 0.0% P16..4: 46.2% 0.0% 0.0% 0.0% 0.0% skip: 2.7%
---[NoImage] x264 [info]: mb B I16..4: 21.1% 0.0% 0.0% B16..8: 28.1% 0.0% 0.0% direct:26.6% skip:24.1% L0:31.4% L1:37.5% BI:31.1%
---[NoImage] x264 [info]: final ratefactor: 20.45
---[NoImage] x264 [info]: direct mvs spatial:99.9% temporal:0.1%
---[NoImage] x264 [info]: coded y,uvDC,uvAC intra: 87.0% 46.8% 10.0% inter: 33.7% 14.7% 0.6%
---[NoImage] x264 [info]: i16 v,h,dc,p: 20% 13% 52% 14%
---[NoImage] x264 [info]: i4 v,h,dc,ddl,ddr,vr,hd,vl,hu: 20% 17% 15% 9% 10% 9% 7% 8% 7%
---[NoImage] x264 [info]: i8c dc,h,v,p: 58% 18% 21% 3%
---[NoImage] x264 [info]: Weighted P-Frames: Y:9.3% UV:4.7%
---[NoImage] x264 [info]: kb/s:8456.20


Релиз от:
загрузка...
Правила, инструкции, FAQ!!!
Торрент  Добавлен [11 май 2013, 16:45] Скачать торрент
Скачать торрент
[ Размер 18.32 КБ / Просмотров 6 ]

Статус  
 
Размер  7.09 ГБ
Приватный: Нет (DHT включён)
.torrent скачан  0
Как залить торрент? | Как скачать Torrent? | Как смотреть и слушать онлайн?  


     Отправить личное сообщение
   
Страница 1 из 1
Показать сообщения за:  Поле сортировки  
Начать новую тему Ответить на тему

   Похожие торренты   Автор   Ответы   Просмотры   Последнее сообщение 
В этой теме нет новых непрочитанных сообщений. Скачать торрент Проверен Плачущий убийца / Crying Freeman (1995) BDRip 1080p | P, A

в форуме 720p | 1080p, Размер: 11.24 ГБ, Здоровье: 100%

Anonymous

0
4|1

52
34

06 июн 2014, 21:11

Anonymous Перейти к последнему сообщению

В этой теме нет новых непрочитанных сообщений. Скачать торрент Проверен Мамочка / Mommy (2014) BDRip [576p] iPad

в форуме Фильмы для iPod, iPhone, iPad, Размер: 3.32 ГБ, Здоровье: 100%

Anonymous

0
8|2

21
0

13 сен 2015, 00:47

Anonymous Перейти к последнему сообщению

В этой теме нет новых непрочитанных сообщений. Скачать торрент Проверен Неизвестный детектив - Моя прекрасная убийца. Сборник [1994, DjVu, RUS]

в форуме Детективы и Боевики, Размер: 8.59 МБ, Здоровье: 0%

Anonymous

0
0|0

0
0

08 сен 2016, 20:52

Anonymous Перейти к последнему сообщению

В этой теме нет новых непрочитанных сообщений. Скачать торрент Проверен Ворон / The Crow (1994) BDRip 1080p

в форуме 720p | 1080p, Размер: 4.37 ГБ, Здоровье: 100%

Гость

0
56|24

30
132

15 ноя 2016, 23:52

Гость Перейти к последнему сообщению

В этой теме нет новых непрочитанных сообщений. Скачать торрент Проверен Флинстоуны / The Flintstones (1994) BDRip 1080p | P, P2, A

в форуме 720p | 1080p, Размер: 8.38 ГБ, Здоровье: 100%

Гость

0
7|2

49
157

08 дек 2014, 18:18

Гость Перейти к последнему сообщению



Сейчас этот форум просматривают: нет зарегистрированных пользователей и гости: 6


Вы не можете начинать темы
Вы не можете отвечать на сообщения
Вы не можете редактировать свои сообщения
Вы не можете удалять свои сообщения
Вы не можете добавлять вложения

Перейти:  

!ВНИМАНИЕ!
 Ресурс не предоставляет электронные версии произведений, а занимается лишь коллекционированием и каталогизацией ссылок, присылаемых и публикуемых на форуме нашими читателями. Если вы являетесь правообладателем какого-либо представленного материала и не желаете чтобы ссылка на него находилась в нашем каталоге, свяжитесь с нами и мы незамедлительно удалим её. Файлы для обмена на трекере предоставлены пользователями сайта, и администрация не несёт ответственности за их содержание. Просьба не заливать файлы, защищенные авторскими правами, а также файлы нелегального содержания!