На всех торрентах на трекере установлена скидка на скачивание в размере 100 процентов(а).
 Возможность скачивания торрента НЕ зависит от ограничений при низком ратио, низком аплоаде, требуемом ратио или требуемом аплоаде.


Начать новую тему Ответить на тему
Статистика раздачи
Размер: 11.9 ГБ | Добавлен: 11 май 2013, 11:37 | Скачали: 128
Сидеров: 66  [0 байт/сек]    Личеров: 5  [0 байт/сек]
Пред. тема | След. тема 

Автор
Сообщение

СообщениеДобавлено: 11 май 2013, 11:37 

Название: Побочный эффект
Оригинальное название: Side Effects
Год выпуска: 2013
Жанр: Триллер, драма, криминал
Выпущено: США, Di Bonaventura Pictures, Endgame Entertainment
Режиссер: Стивен Содерберг

В фильме снимались: Джуд Лоу, Руни Мара, Кэтрин Зета-Джонс, Ченнинг Татум, Кармен Пелаес, Марин Айрлэнд, Полли Дрэйпер, Аральдо Альварес, Джеймс Мартинез, Владимир Версейл, Жаклин Антарамиан, Мишель Вергара Мур, Кэти Лоус, Дэвид Костабайл, Мэми Гаммер, Стивен Платт, Виктор Круз, Винесса Шоу, Элизабет Родригез, Питер Фридман, Андреа Богарт, Лайла Робинс

Вкратце: Жизнь главной героини Эмили Хоукинс пошла под откос, когда её мужа посадили в тюрьму. Вначале она пыталась спастись от депрессии своими силами, горстями глотая успокоительное. После того, как стало понятно, что это не поможет, Эмили не оставалось другого выхода кроме отправления в психиатрическую лечебницу к добрым и заботливым людям в белых халатах. Теперь главная героиня борется со своими внутренними демонами уже не одна — справиться с угнетённым состоянием ей помогают два лучших доктора клиники, а также экспериментальные препараты, обладающие довольно странными побочными эффектами. Не получится ли так, что все внутренние страхи Эмили вместо того, чтобы исчезнуть, вырвутся наружу?



Формат: mkv
Качество: BDRip (1080p)
Видео: MPEG-4 AVC, 13.7 Мбит/с, 1920x1040, 23.976 кадр/с
Аудио: Русский (AC3, 6 ch, 448 Кбит/с), английский (DTS, 6 ch, 1510 Кбит/с)

Продолжительность: 01:46:22
Перевод: Дублированный [лицензия]
Субтитры: Английские
General
Complete name : Side.Effects.2013.D.BDRip.1080p.mkv
Format : Matroska
Format version : Version 2
File size : 11.9 GiB
Duration : 1h 46mn
Overall bit rate : 16.0 Mbps
Movie name : Respector
Encoded date : UTC 2013-05-09 14:08:33
Writing application : mkvmerge v5.5.0 ('Healer') built on Apr 24 2012 23:47:03
Writing library : libebml v1.2.3 + libmatroska v1.3.0

Video
ID : 1
Format : AVC
Format/Info : Advanced Video Codec
Format profile : High@L4.1
Format settings, CABAC : Yes
Format settings, ReFrames : 4 frames
Codec ID : V_MPEG4/ISO/AVC
Duration : 1h 46mn
Bit rate : 13.7 Mbps
Width : 1 920 pixels
Height : 1 040 pixels
Display aspect ratio : 1.85:1
Frame rate mode : Constant
Frame rate : 23.976 fps
Color space : YUV
Chroma subsampling : 4:2:0
Bit depth : 8 bits
Scan type : Progressive
Bits/(Pixel*Frame) : 0.287
Stream size : 10.2 GiB (86%)
Writing library : x264 core 130 r2274+704+40 24c804d tMod+MixAQ [8-bit@4:2:0 X86_64]
Encoding settings : cabac=1 / ref=4 / deblock=1:-3:-3 / analyse=0x3:0x113 / me=umh / subme=11 / psy=1 / fade_compensate=0.00 / psy_rd=1.05:0.00 / mixed_ref=1 / me_range=48 / chroma_me=1 / trellis=2 / 8x8dct=1 / cqm=0 / deadzone=21,11 / fast_pskip=0 / chroma_qp_offset=-2 / threads=36 / lookahead_threads=6 / sliced_threads=0 / nr=0 / decimate=0 / interlaced=0 / bluray_compat=0 / constrained_intra=0 / fgo=0 / bframes=8 / b_pyramid=2 / b_adapt=2 / b_bias=0 / direct=3 / weightb=1 / open_gop=0 / weightp=2 / keyint=240 / keyint_min=24 / scenecut=40 / intra_refresh=0 / rc=crf / mbtree=0 / crf=17.8000 / qcomp=0.72 / qpmin=0 / qpmax=69 / qpstep=4 / ip_ratio=1.25 / pb_ratio=1.20 / aq=4:0.80 / aq-sensitivity=10.00 / aq-ifactor=1.00 / aq-pfactor=1.00 / aq-bfactor=1.00 / aq2=0
Language : English
Default : Yes
Forced : No

Audio #1
ID : 2
Format : AC-3
Format/Info : Audio Coding 3
Mode extension : CM (complete main)
Format settings, Endianness : Big
Codec ID : A_AC3
Duration : 1h 46mn
Bit rate mode : Constant
Bit rate : 448 Kbps
Channel(s) : 6 channels
Channel positions : Front: L C R, Side: L R, LFE
Sampling rate : 48.0 KHz
Bit depth : 16 bits
Compression mode : Lossy
Stream size : 341 MiB (3%)
Language : Russian
Default : Yes
Forced : Yes

Audio #2
ID : 3
Format : DTS
Format/Info : Digital Theater Systems
Mode : 16
Format settings, Endianness : Big
Codec ID : A_DTS
Duration : 1h 46mn
Bit rate mode : Constant
Bit rate : 1 509 Kbps
Channel(s) : 6 channels
Channel positions : Front: L C R, Side: L R, LFE
Sampling rate : 48.0 KHz
Bit depth : 24 bits
Compression mode : Lossy
Stream size : 1.12 GiB (9%)
Language : English
Default : No
Forced : No

Text
ID : 4
Format : PGS
Muxing mode : zlib
Codec ID : S_HDMV/PGS
Codec ID/Info : The same subtitle format used on BDs/HD-DVDs
Language : English
Default : No
Forced : No



Торент обновлен 09.05.2013г 18:47
Улучшеный видеорд. Звук.
загрузка...
Правила, инструкции, FAQ!!!
Торрент  Добавлен [11 май 2013, 11:37] Скачать торрент
Скачать торрент
[ Размер 59.83 КБ / Просмотров 28 ]

Статус  
 
Размер  11.9 ГБ
Приватный: Нет (DHT включён)
.torrent скачан  128
Как залить торрент? | Как скачать Torrent? | Как смотреть и слушать онлайн?  


     Отправить личное сообщение
   
Страница 1 из 1
Показать сообщения за:  Поле сортировки  
Начать новую тему Ответить на тему

   Похожие торренты   Автор   Ответы   Просмотры   Последнее сообщение 
В этой теме нет новых непрочитанных сообщений. Скачать торрент Проверен Ливадный Андрей - Побочный эффект [Jurshilov, 2010, 320 kbps]

в форуме Российская фантастика, фэнтези, мистика, ужасы, фанфики, Размер: 66.45 МБ, Здоровье: 0%

Anonymous

0
0|0

2
0

10 сен 2016, 19:18

Anonymous Перейти к последнему сообщению

В этой теме нет новых непрочитанных сообщений. Скачать торрент Проверен Хоуки Реймонд - Побочный эффект [Терновский Евгений, 2015 г., 96 kbps, MP3]

в форуме Детектив и Боевики, Размер: 442.82 МБ, Здоровье: 100%

Anonymous

0
5|2

4
0

04 май 2016, 22:15

Anonymous Перейти к последнему сообщению

В этой теме нет новых непрочитанных сообщений. Скачать торрент Проверен Эффект бабочки / The Butterfly Effect (2004) BDRip 1080p | Theatrical Cut

в форуме 720p | 1080p, Размер: 7.94 ГБ, Здоровье: 100%

Гость

0
45|4

45
94

07 дек 2014, 17:41

Гость Перейти к последнему сообщению

В этой теме нет новых непрочитанных сообщений. Скачать торрент Владение 18 (2013) BDRip 1080p | Лицензия

в форуме 720p | 1080p, Размер: 7.01 ГБ, Здоровье: 100%

Anonymous

0
28|1

36
351

12 апр 2014, 13:52

Anonymous Перейти к последнему сообщению

В этой теме нет новых непрочитанных сообщений. Скачать торрент Телекинез / Carrie (2013) BDRip 1080p | Лицензия‎

в форуме 720p | 1080p, Размер: 8.61 ГБ, Здоровье: 0%

Anonymous

0
0|0

45
0

04 фев 2014, 08:41

Anonymous Перейти к последнему сообщению



Сейчас этот форум просматривают: нет зарегистрированных пользователей и гости: 1


Вы не можете начинать темы
Вы не можете отвечать на сообщения
Вы не можете редактировать свои сообщения
Вы не можете удалять свои сообщения
Вы не можете добавлять вложения

Перейти:  

!ВНИМАНИЕ!
 Ресурс не предоставляет электронные версии произведений, а занимается лишь коллекционированием и каталогизацией ссылок, присылаемых и публикуемых на форуме нашими читателями. Если вы являетесь правообладателем какого-либо представленного материала и не желаете чтобы ссылка на него находилась в нашем каталоге, свяжитесь с нами и мы незамедлительно удалим её. Файлы для обмена на трекере предоставлены пользователями сайта, и администрация не несёт ответственности за их содержание. Просьба не заливать файлы, защищенные авторскими правами, а также файлы нелегального содержания!