На всех торрентах на трекере установлена скидка на скачивание в размере 100 процентов(а).
 Возможность скачивания торрента НЕ зависит от ограничений при низком ратио, низком аплоаде, требуемом ратио или требуемом аплоаде.


Начать новую тему Ответить на тему
Статистика раздачи
Размер: 8.04 ГБ | Добавлен: 10 май 2013, 15:12 | Скачали: 3
Сидеров: 3  [0 байт/сек]    Личеров: 50  [0 байт/сек]
Пред. тема | След. тема 

Автор
Сообщение

СообщениеДобавлено: 10 май 2013, 15:12 

Название: Звездная пыль
Оригинальное название: Stardust
Год выпуска: 2007
Жанр: Фэнтези, мелодрама, приключения, семейный
Выпущено: США, Великобритания, Исландия, Di Bonaventura Pictures, Ingenious Film Partners, Marv Films, Paramount Pictures, True North Productions
Режиссер: Мэттью Вон

В фильме снимались: Чарли Кокс, Клер Дэйнс, Мишель Пфайффер, Роберт Де Ниро, Марк Стронг, Джейсон Флеминг, Руперт Эверетт, Кейт Магован, Сиенна Миллер, Натаниель Паркер, Бен Барнс, Питер О’Тул, Иэн МакКеллен, Бимбо Харт, Алистер Макинтош, Дэвид Келли, Мелани Хилл, Генри Кавилл, Дэрби Хокер, Фрэнк Эллис, Марк Хип, Струан Роджер, Дэвид Уоллиамс, Джулиан Райнд-Татт, Адам Бакстон, Сара Александр, Джоэнна Скэнлэн, Джордж Иннес, Джэйк Каррен, Грант Баргин, Марк Уильямс, Оливия Грант, Коко Самнер, Декстер Флетчер, Терри Мерфи, Рики Джервэйс, Джофф Белл, Марк Бернс

Вкратце: Маленькая английская деревенька отделена древней стеной от сверхъестественной параллельной вселенной, где царят магия и волшебство. Молодой Тристан Торн опрометчиво обещает самой красивой девушке деревни, что принесёт ей слетевшую с неба звезду, упавшую по ту сторону стены. На своём пути по следам древних легенд Тристан встретит всесильного короля и его заговорщика-сына, могущественную ведьму, капитана пиратского корабля и хитроумного торговца, а также найдёт свою истинную любовь, ключ к пониманию своей сущности и судьбы, о которой он мог только мечтать...

Формат: mkv
Качество: BDRip 720p

Продолжительность: 02:07:44
Перевод: Дублированный, профессиональный многоголосый, профессиональный двухголосый, авторский одноголосый
Субтитры Русские, английские

Видео: MPEG-4 AVC, 4083 Кбит/с, 1280x532
Аудио 1: русский, 48 kHz, AC3, 6 ch, 448 kbps avg [Дублированный]
Аудио 2: русский, 48 kHz, AC3, 6 ch, 448 kbps avg Киномания [Профессиональный многоголосый]
Аудио 3: русский, 48 kHz, AC3, 6 ch, 448 kbps avg Пётр Иващенко (Гланц) и Инна Королёва [Профессиональный двухголосый]
Аудио 4: русский, 48 kHz, AC3, 6 ch, 640 kbps avg Владимир Королёв [Авторский одноголосый]
Субтитры 1: русские
Субтитры 2: английские
Субтитры 3: английские (Комментарий)

Внешние файлы
Аудио: украинский, 48 kHz, AC3, 6 ch, 448 kbps avg [Дублированный]
Аудио: русский, 48 kHz, DTS, 6 ch, 1509 kbps avg Владимир Королёв [Авторский одноголосый]
Аудио: английский, 48 kHz, AC3, 6 ch, 640 kbps avg [Оригинал]
Аудио: английский, 48 kHz, AC3, 2 ch, 224 kbps avg [Комментарий]





Жорж, 2008 год
Номинации (1):
Лучший высокобюджетный/зрелищный фильм

Сатурн, 2008 год
Номинации (3):
Лучший фэнтези-фильм
Лучшая актриса второго плана (Мишель Пфайффер)
Лучшие костюмы
Общее
Полное имя : E:VideoZvezdnaja.pyl.2007.x264.BDRip.720pZvezdnaja.pyl.2007.AVO.rus.В.Королёв.dts
Формат : DTS
Формат/Информация : Digital Theater Systems
Размер файла : 1,35 Гбайт
Продолжительность : 2 ч. 7 м.
Режим общего битрейта : Постоянный
Общий поток : 1509 Кбит/сек

Аудио
Формат : DTS
Формат/Информация : Digital Theater Systems
Режим : 16
Параметр Endianness формата : Big
Продолжительность : 2 ч. 7 м.
Вид битрейта : Постоянный
Битрейт : 1509 Кбит/сек
Каналы : 6 каналов
Расположение каналов : Front: L C R, Side: L R, LFE
Частота : 48,0 КГц
Битовая глубина : 24 бит
Метод сжатия : С потерями
Размер потока : 1,35 Гбайт (100%)

Общее
Полное имя : E:VideoZvezdnaja.pyl.2007.x264.BDRip.720pZvezdnaja.pyl.2007.Commentary.eng.ac3
Формат : AC-3
Формат/Информация : Audio Coding 3
Размер файла : 205 Мбайт
Продолжительность : 2 ч. 7 м.
Режим общего битрейта : Постоянный
Общий поток : 224 Кбит/сек

Аудио
Формат : AC-3
Формат/Информация : Audio Coding 3
Профиль формата : Dolby Digital
Расширение режима : CM (complete main)
Параметр Endianness формата : Big
Продолжительность : 2 ч. 7 м.
Вид битрейта : Постоянный
Битрейт : 224 Кбит/сек
Каналы : 2 канала
Расположение каналов : Front: L R
Частота : 48,0 КГц
Битовая глубина : 16 бит
Метод сжатия : С потерями
Размер потока : 205 Мбайт (100%)

Общее
Полное имя : E:VideoZvezdnaja.pyl.2007.x264.BDRip.720pZvezdnaja.pyl.2007.DUB.ukr.ac3
Формат : AC-3
Формат/Информация : Audio Coding 3
Размер файла : 409 Мбайт
Продолжительность : 2 ч. 7 м.
Режим общего битрейта : Постоянный
Общий поток : 448 Кбит/сек

Аудио
Формат : AC-3
Формат/Информация : Audio Coding 3
Расширение режима : CM (complete main)
Параметр Endianness формата : Big
Продолжительность : 2 ч. 7 м.
Вид битрейта : Постоянный
Битрейт : 448 Кбит/сек
Каналы : 6 каналов
Расположение каналов : Front: L C R, Side: L R, LFE
Частота : 48,0 КГц
Битовая глубина : 16 бит
Метод сжатия : С потерями
Размер потока : 409 Мбайт (100%)

Общее
Полное имя : E:VideoZvezdnaja.pyl.2007.x264.BDRip.720pZvezdnaja.pyl.2007.Original.eng.ac3
Формат : AC-3
Формат/Информация : Audio Coding 3
Размер файла : 585 Мбайт
Продолжительность : 2 ч. 7 м.
Режим общего битрейта : Постоянный
Общий поток : 640 Кбит/сек

Аудио
Формат : AC-3
Формат/Информация : Audio Coding 3
Расширение режима : CM (complete main)
Параметр Endianness формата : Big
Продолжительность : 2 ч. 7 м.
Вид битрейта : Постоянный
Битрейт : 640 Кбит/сек
Каналы : 6 каналов
Расположение каналов : Front: L C R, Side: L R, LFE
Частота : 48,0 КГц
Битовая глубина : 16 бит
Метод сжатия : С потерями
Размер потока : 585 Мбайт (100%)

Общее
Уникальный идентификатор : 183783586337349153462530892642025463153 (0x8A436E648688B87C8CF3A1E416E3DD71)
Полное имя : E:VideoZvezdnaja.pyl.2007.x264.BDRip.720pZvezdnaja.pyl.2007.x264.BDRip.720p.mkv
Формат : Matroska
Версия формата : Version 4 / Version 2
Размер файла : 5,52 Гбайт
Продолжительность : 2 ч. 7 м.
Общий поток : 6190 Кбит/сек
Название фильма : Звездная пыль / Stardust / 2007 / BDRip -- STarankov
Дата кодирования : UTC 2010-02-22 21:41:31
Программа кодирования : mkvmerge v5.9.0 ('On The Loose') built on Dec 9 2012 15:37:01
Библиотека кодирования : libebml v1.3.0 + libmatroska v1.4.0

Видео
Идентификатор : 1
Формат : AVC
Формат/Информация : Advanced Video Codec
Профиль формата : High@L4.1
Параметр CABAC формата : Да
Параметр ReFrames формата : 9 кадров
Идентификатор кодека : V_MPEG4/ISO/AVC
Продолжительность : 2 ч. 7 м.
Битрейт : 4083 Кбит/сек
Ширина : 1280 пикселей
Высота : 532 пикселя
Соотношение сторон : 2,40:1
Режим частоты кадров : Постоянный
Частота кадров : 23,976 кадра/сек
Цветовое пространство : YUV
Субдискретизация насыщенности : 4:2:0
Битовая глубина : 8 бит
Тип развёртки : Прогрессивная
Бит/(Пиксели*Кадры) : 0.250
Размер потока : 3,64 Гбайт (66%)
Библиотека кодирования : x264 core 130 r2273 b3065e6
Настройки программы : cabac=1 / ref=9 / deblock=1:-1:-1 / analyse=0x3:0x113 / me=umh / subme=9 / psy=1 / psy_rd=1.00:0.15 / mixed_ref=1 / me_range=24 / chroma_me=1 / trellis=2 / 8x8dct=1 / cqm=0 / deadzone=21,11 / fast_pskip=1 / chroma_qp_offset=-3 / threads=6 / lookahead_threads=1 / sliced_threads=0 / nr=0 / decimate=1 / interlaced=0 / bluray_compat=0 / constrained_intra=0 / bframes=8 / b_pyramid=2 / b_adapt=2 / b_bias=0 / direct=1 / weightb=0 / open_gop=0 / weightp=2 / keyint=230 / keyint_min=23 / scenecut=40 / intra_refresh=0 / rc=crf / mbtree=0 / crf=19.5 / qcomp=0.60 / qpmin=0 / qpmax=69 / qpstep=4 / ip_ratio=1.40 / pb_ratio=1.30 / aq=1:1.00
Язык : English
Default : Да
Forced : Нет

Аудио #1
Идентификатор : 2
Формат : AC-3
Формат/Информация : Audio Coding 3
Расширение режима : CM (complete main)
Параметр Endianness формата : Big
Идентификатор кодека : A_AC3
Продолжительность : 2 ч. 7 м.
Вид битрейта : Постоянный
Битрейт : 448 Кбит/сек
Каналы : 6 каналов
Расположение каналов : Front: L C R, Side: L R, LFE
Частота : 48,0 КГц
Битовая глубина : 16 бит
Метод сжатия : С потерями
Размер потока : 409 Мбайт (7%)
Заголовок : DUB
Язык : Russian
Default : Да
Forced : Нет

Аудио #2
Идентификатор : 3
Формат : AC-3
Формат/Информация : Audio Coding 3
Расширение режима : CM (complete main)
Параметр Endianness формата : Big
Идентификатор кодека : A_AC3
Продолжительность : 2 ч. 7 м.
Вид битрейта : Постоянный
Битрейт : 448 Кбит/сек
Каналы : 6 каналов
Расположение каналов : Front: L C R, Side: L R, LFE
Частота : 48,0 КГц
Битовая глубина : 16 бит
Метод сжатия : С потерями
Размер потока : 409 Мбайт (7%)
Заголовок : MVO (Киномания)
Язык : Russian
Default : Нет
Forced : Нет

Аудио #3
Идентификатор : 4
Формат : AC-3
Формат/Информация : Audio Coding 3
Расширение режима : CM (complete main)
Параметр Endianness формата : Big
Идентификатор кодека : A_AC3
Продолжительность : 2 ч. 7 м.
Вид битрейта : Постоянный
Битрейт : 448 Кбит/сек
Каналы : 6 каналов
Расположение каналов : Front: L C R, Side: L R, LFE
Частота : 48,0 КГц
Битовая глубина : 16 бит
Метод сжатия : С потерями
Размер потока : 409 Мбайт (7%)
Заголовок : DVO (Пётр Ивавщенко (Гланц) и Инна Королёва)
Язык : Russian
Default : Нет
Forced : Нет

Аудио #4
Идентификатор : 5
Формат : AC-3
Формат/Информация : Audio Coding 3
Расширение режима : CM (complete main)
Параметр Endianness формата : Big
Идентификатор кодека : A_AC3
Продолжительность : 2 ч. 7 м.
Вид битрейта : Постоянный
Битрейт : 640 Кбит/сек
Каналы : 6 каналов
Расположение каналов : Front: L C R, Side: L R, LFE
Частота : 48,0 КГц
Битовая глубина : 16 бит
Метод сжатия : С потерями
Размер потока : 585 Мбайт (10%)
Заголовок : AVO (Владимир Королёв)
Язык : Russian
Default : Нет
Forced : Нет

Текст #1
Идентификатор : 6
Формат : UTF-8
Идентификатор кодека : S_TEXT/UTF8
Идентификатор кодека/Информация : UTF-8 Plain Text
Заголовок : русский (надписи)
Язык : Russian
Default : Да
Forced : Да

Текст #2
Идентификатор : 7
Формат : UTF-8
Идентификатор кодека : S_TEXT/UTF8
Идентификатор кодека/Информация : UTF-8 Plain Text
Заголовок : русский
Язык : Russian
Default : Нет
Forced : Нет

Текст #3
Идентификатор : 8
Формат : UTF-8
Идентификатор кодека : S_TEXT/UTF8
Идентификатор кодека/Информация : UTF-8 Plain Text
Заголовок : английский
Default : Нет
Forced : Нет

Текст #4
Идентификатор : 9
Формат : UTF-8
Идентификатор кодека : S_TEXT/UTF8
Идентификатор кодека/Информация : UTF-8 Plain Text
Заголовок : английский (для слабослышащих)
Default : Нет
Forced : Нет

Текст #5
Идентификатор : 10
Формат : UTF-8
Идентификатор кодека : S_TEXT/UTF8
Идентификатор кодека/Информация : UTF-8 Plain Text
Заголовок : английский (комментарий)
Default : Нет
Forced : Нет

загрузка...
Правила, инструкции, FAQ!!!
Торрент  Добавлен [10 май 2013, 15:12] Скачать торрент
Скачать торрент
[ Размер 20.8 КБ / Просмотров 7 ]

Статус  
 
Размер  8.04 ГБ
Приватный: Нет (DHT включён)
.torrent скачан  3
Как залить торрент? | Как скачать Torrent? | Как смотреть и слушать онлайн?  


     Отправить личное сообщение
   
Страница 1 из 1
Показать сообщения за:  Поле сортировки  
Начать новую тему Ответить на тему

   Похожие торренты   Автор   Ответы   Просмотры   Последнее сообщение 
В этой теме нет новых непрочитанных сообщений. Скачать торрент Проверен [iPad] Звездная пыль / Stardust (Мэттью Вон/ Matthew Vaughn) [2007, США, Великобритания, Фэнтези, мелодрама, семейный, BDRip, 576p] Dub + Original + sub (rus, eng)

в форуме Фильмы для iPod, iPhone, iPad, Размер: 2.22 ГБ, Здоровье: 100%

Anonymous

0
35|11

22
0

11 май 2015, 01:42

Anonymous Перейти к последнему сообщению

В этой теме нет новых непрочитанных сообщений. Скачать торрент Звездная пыль / Stardust (Мэттью Вон) [2007 г., фэнтези, мелодрама, приключения, DVDRip]

в форуме Фантастика, Фэнтези, Размер: 702.95 МБ, Здоровье: 100%

Anonymous

0
6|1

73
1

03 апр 2014, 12:45

Anonymous Перейти к последнему сообщению

В этой теме нет новых непрочитанных сообщений. Скачать торрент Проверен [iPhone] Звездная Пыль / Stardust (Мэттью Вон / Matthew Vaughn) [2007 г., Приключения, фэнтези, сказка, мелодрама, HD-DVDRip]

в форуме Фильмы для iPod, iPhone, iPad, Размер: 563.87 МБ, Здоровье: 100%

Anonymous

0
3|1

26
0

18 май 2015, 10:36

Anonymous Перейти к последнему сообщению

В этой теме нет новых непрочитанных сообщений. Скачать торрент Проверен Гейман Нил - Звездная пыль [Олег Мартьянов, 2011 г., 128 kbps, MP3]

в форуме Зарубежная фантастика, фэнтези, мистика, ужасы, Размер: 446.12 МБ, Здоровье: 100%

Anonymous

0
34|11

1
0

11 сен 2016, 12:17

Anonymous Перейти к последнему сообщению

В этой теме нет новых непрочитанных сообщений. Скачать торрент Проверен Звездная болезнь / StarStruck (2010) WEB-DL 720p | iTunes

в форуме 720p | 1080p, Размер: 2.77 ГБ, Здоровье: 100%

Гость

0
83|17

48
33

07 июл 2015, 23:01

Гость Перейти к последнему сообщению



Сейчас этот форум просматривают: нет зарегистрированных пользователей и гости: 3


Вы не можете начинать темы
Вы не можете отвечать на сообщения
Вы не можете редактировать свои сообщения
Вы не можете удалять свои сообщения
Вы не можете добавлять вложения

Перейти:  

!ВНИМАНИЕ!
 Ресурс не предоставляет электронные версии произведений, а занимается лишь коллекционированием и каталогизацией ссылок, присылаемых и публикуемых на форуме нашими читателями. Если вы являетесь правообладателем какого-либо представленного материала и не желаете чтобы ссылка на него находилась в нашем каталоге, свяжитесь с нами и мы незамедлительно удалим её. Файлы для обмена на трекере предоставлены пользователями сайта, и администрация не несёт ответственности за их содержание. Просьба не заливать файлы, защищенные авторскими правами, а также файлы нелегального содержания!