На всех торрентах на трекере установлена скидка на скачивание в размере 100 процентов(а).
 Возможность скачивания торрента НЕ зависит от ограничений при низком ратио, низком аплоаде, требуемом ратио или требуемом аплоаде.


Начать новую тему Ответить на тему
Статистика раздачи
Размер: 4.37 ГБ | Добавлен: 10 май 2013, 11:57 | Скачали: 6
Сидеров: 4  [0 байт/сек]    Личеров: 0  [0 байт/сек]
Пред. тема | След. тема 

Автор
Сообщение

СообщениеДобавлено: 10 май 2013, 11:57 

Страна: США
Студия: Nicholas Sparks Productions, Relativity Media...
Жанр: триллер, драма, мелодрама, детектив
Год выпуска: 2013
Продолжительность: 01:55:32

Перевод: Профессиональный (дублированный)
Оригинальная аудиодорожка: нет
Cубтитры: нет

Режиссер: Лассе Халльстрём / Lasse Hallström

В фильме снимались: Джулианна Хаф, Джош Дюамель, Дэвид Лайонс, Коби Смолдерс, Мими Кирклэнд, Ной Ломакс, Ред Уэст, Робин Маллинз, Ирен Циглер, Рик Рейц...

Роли дублировали: Инна Королёва, Ульяна Иващенко, Ольга Зубкова, Александр Рахленко

Вкратце: Кэти много лет страдала от жестокости мужа. Потеряв надежду на спасение, она совершила отчаянный побег и обрела «тихую гавань» в маленьком спокойном южном городке. Но готова ли Кэти к новым отношениям? Способна ли вновь поверить мужчине, понять его и полюбить? Даже если речь идет о таком обаятельном человеке, как молодой вдовец Алекс Уитли. Алекс и Кэти идут по тонкому льду неизвестности, — а между тем муж Кэти уже начал ее поиски.





Исходник: Blu-ray 1080p SAFE_HAVEN_HDCLUB
Качество: BDRip 720p
Формат: MKV

Видео: 1280x720 (16:9), 23.976 fps, H264 ~ 4966 kbps avg, 0.225 bit/pixel
Аудио: 48 kHz, AC3 6 ch, 448 kbps, русский

Раздача от:
Общее
Полное имя : Tihaya.gavan.2013.D.BDRip.720p_[Youtracker]_by_avproh.mkv
Формат : Matroska
Версия формата : Version 4 / Version 2
Размер файла : 4,37 Гбайт
Продолжительность : 1 ч. 55 м.
Общий поток : 5412 Кбит/сек
Дата кодирования : UTC 2013-04-22 23:13:15
Программа кодирования : mkvmerge v6.1.0 ('Old Devil') built on Mar 2 2013 14:32:37
Библиотека кодирования : libebml v1.3.0 + libmatroska v1.4.0

Видео
Идентификатор : 1
Формат : AVC
Формат/Информация : Advanced Video Codec
Профиль формата : High@L4.1
Параметр CABAC формата : Да
Параметр ReFrames формата : 8 кадров
Идентификатор кодека : V_MPEG4/ISO/AVC
Продолжительность : 1 ч. 55 м.
Битрейт : 4966 Кбит/сек
Ширина : 1280 пикселей
Высота : 720 пикселей
Соотношение сторон : 16:9
Режим частоты кадров : Постоянный
Частота кадров : 23,976 кадра/сек
Цветовое пространство : YUV
Субдискретизация насыщенности : 4:2:0
Битовая глубина : 8 бит
Тип развёртки : Прогрессивная
Бит/(Пиксели*Кадры) : 0.225
Размер потока : 3,92 Гбайт (90%)
Библиотека кодирования : x264 core 119 r2106 07efeb4
Настройки программы : cabac=1 / ref=8 / deblock=1:-2:-2 / analyse=0x3:0x133 / me=umh / subme=9 / psy=1 / psy_rd=1.00:0.10 / mixed_ref=1 / me_range=32 / chroma_me=1 / trellis=2 / 8x8dct=1 / cqm=0 / deadzone=21,11 / fast_pskip=1 / chroma_qp_offset=-3 / threads=9 / sliced_threads=0 / nr=0 / decimate=1 / interlaced=0 / bluray_compat=0 / constrained_intra=0 / bframes=8 / b_pyramid=2 / b_adapt=2 / b_bias=0 / direct=3 / weightb=1 / open_gop=0 / weightp=2 / keyint=250 / keyint_min=23 / scenecut=40 / intra_refresh=0 / rc=2pass / mbtree=0 / bitrate=4966 / ratetol=1.0 / qcomp=0.60 / qpmin=0 / qpmax=69 / qpstep=4 / cplxblur=20.0 / qblur=0.5 / ip_ratio=1.40 / pb_ratio=1.30 / aq=2:0.90
Язык : English
Default : Да
Forced : Нет

Аудио
Идентификатор : 2
Формат : AC-3
Формат/Информация : Audio Coding 3
Расширение режима : CM (complete main)
Параметр Endianness формата : Big
Идентификатор кодека : A_AC3
Продолжительность : 1 ч. 55 м.
Вид битрейта : Постоянный
Битрейт : 448 Кбит/сек
Каналы : 6 каналов
Расположение каналов : Front: L C R, Side: L R, LFE
Частота : 48,0 КГц
Битовая глубина : 16 бит
Метод сжатия : С потерями
Размер потока : 370 Мбайт (8%)
Язык : Russian
Default : Да
Forced : Нет

Меню
00:00:00.000 : en:00:00:00.000
00:10:43.268 : en:00:10:43.268
00:21:46.180 : en:00:21:46.180
00:30:56.772 : en:00:30:56.772
00:43:43.246 : en:00:43:43.246
00:51:54.945 : en:00:51:54.945
01:01:17.716 : en:01:01:17.716
01:08:24.350 : en:01:08:24.350
01:20:51.889 : en:01:20:51.889
01:29:58.143 : en:01:29:58.143
01:43:14.605 : en:01:43:14.605
01:50:27.663 : en:01:50:27.663


загрузка...
Правила, инструкции, FAQ!!!
Торрент  Добавлен [10 май 2013, 11:57] Скачать торрент
Скачать торрент
[ Размер 11.59 КБ / Просмотров 5 ]

Статус  
 
Размер  4.37 ГБ
Приватный: Нет (DHT включён)
.torrent скачан  6
Как залить торрент? | Как скачать Torrent? | Как смотреть и слушать онлайн?  


     Отправить личное сообщение
   
Страница 1 из 1
Показать сообщения за:  Поле сортировки  
Начать новую тему Ответить на тему

   Похожие торренты   Автор   Ответы   Просмотры   Последнее сообщение 
В этой теме нет новых непрочитанных сообщений. Скачать торрент Тихая гавань / Safe Haven (Лассе Халльстрём / Lasse Hallström) [2013, США, триллер, драма, мелодрама, детектив, BDRip 720p] Dub

в форуме 720p | 1080p, Размер: 6.68 ГБ, Здоровье: 0%

Anonymous

0
0|0

17
0

25 фев 2014, 22:40

Anonymous Перейти к последнему сообщению

В этой теме нет новых непрочитанных сообщений. Скачать торрент Проверен (Melodic rock) Safe Haven - Safe Haven - 2004, MP3 (tracks), 320 kbps

в форуме AOR (Melodic Hard Rock, Arena rock), Размер: 113.23 МБ, Здоровье: 0%

Anonymous

0
0|0

2
0

08 окт 2016, 11:11

Anonymous Перейти к последнему сообщению

В этой теме нет новых непрочитанных сообщений. Скачать торрент Проверен Деревянко Илья - Тихая гавань [Сергей Локтионов (ЛИ), 2012г, 128kbps, MP3]

в форуме Детектив и Боевики, Размер: 40.96 МБ, Здоровье: 0%

Anonymous

0
0|0

7
0

04 май 2016, 22:17

Anonymous Перейти к последнему сообщению

В этой теме нет новых непрочитанных сообщений. Скачать торрент Гавань / Haven (Фрэнк Е. Флауэрс /Frank E. Flowers) [2004 г., драма, криминал, DVDRip]

в форуме Драмы, Мелодрамы, Размер: 814.27 МБ, Здоровье: 100%

Anonymous

0
5|1

31
0

22 апр 2014, 11:47

Anonymous Перейти к последнему сообщению

В этой теме нет новых непрочитанных сообщений. Скачать торрент Проверен Тихая застава (Сергей Маховиков) [2010, Россия, драма, военный, BDRip 720p]

в форуме Наше кино (HD Video), Размер: 4.37 ГБ, Здоровье: 100%

Anonymous

0
14|4

36
0

12 апр 2015, 10:58

Anonymous Перейти к последнему сообщению



Сейчас этот форум просматривают: нет зарегистрированных пользователей и гости: 1


Вы не можете начинать темы
Вы не можете отвечать на сообщения
Вы не можете редактировать свои сообщения
Вы не можете удалять свои сообщения
Вы не можете добавлять вложения

Перейти:  

!ВНИМАНИЕ!
 Ресурс не предоставляет электронные версии произведений, а занимается лишь коллекционированием и каталогизацией ссылок, присылаемых и публикуемых на форуме нашими читателями. Если вы являетесь правообладателем какого-либо представленного материала и не желаете чтобы ссылка на него находилась в нашем каталоге, свяжитесь с нами и мы незамедлительно удалим её. Файлы для обмена на трекере предоставлены пользователями сайта, и администрация не несёт ответственности за их содержание. Просьба не заливать файлы, защищенные авторскими правами, а также файлы нелегального содержания!