На всех торрентах на трекере установлена скидка на скачивание в размере 100 процентов(а).
 Возможность скачивания торрента НЕ зависит от ограничений при низком ратио, низком аплоаде, требуемом ратио или требуемом аплоаде.


Начать новую тему Ответить на тему
Статистика раздачи
Размер: 2.23 ГБ | Добавлен: 10 май 2013, 11:06 | Скачали: 342
Сидеров: 27  [0 байт/сек]    Личеров: 1  [0 байт/сек]
Пред. тема | След. тема 

Автор
Сообщение

СообщениеДобавлено: 10 май 2013, 11:06 

Название: Двойной форсаж
Оригинальное название: 2 Fast 2 Furious
Год выхода: 2003
Жанр: Боевик, триллер, криминал
Режиссер: Джон Синглтон

В фильме снимались: Пол Уокер, Тайриз Гибсон, Ева Мендес, Коул Хаузер, Лудакрис, Том Бэрри, Джеймс Ремар, Девон Аоки, Амори Ноласко, Майкл Или, Джин Онг, Эдвард Финлэй, Марк Бун Джуниор, Мэтт Галлини, Роберто 'Санс' Санчес, Эрик Этебари, Джон Ченатьемпо, Трой Браун, Кори Майкл Юбэнкс, Сэм Малуф, Трой Робинсон, Хосе Перез, Синсерели А. Уорд, Нивекита Дубуку, Текилла Хилл, Беттина Хаффер, Фонг Туйет Во, Фелесиа Рэфилд, Матео Эррерос, Уолтер 'Дьюк' Фостер, Захари Л. Манн, Марк Маколей, Кобетт Харпер, Лимари Агосто, Тони Болано, Тара Кэрролл, Нил Х. Мориц, Марианн М. Арреага, Тамара Джонс

Вкратце:
Бывший полицейский Брайан О`Коннер вместе с напарником Романом Пиарсом собираются перевезти крупную сумму «грязных» денег известного мафиози Картера Верона в качестве его подручных. Но на самом деле эта работа является только прикрытием для Брайана, который вместе с тайным агентом Моникой Клемент должны уличить изворотливого преступника…



Страна: США, Германия, Mikona Productions GmbH & Co. KG, Original Film, Universal Pictures
Продолжительность: 01:47:35
Перевод: Дублированный
Субтитры: Русские, английские
Дата релиза: 10.05.2013

Формат: mkv
Кодек: H.264
Качество: BDRip (AVC) (Blu-Ray Remux (1080p))
Видео: MPEG-4 AVC, 2199 Кбит/с, 1024x436
Звук: Русский, английский (AC3, 6 ch, 384 Кбит/с)

Общее
Уникальный идентификатор : 244043208360427624031317469075074692477 (0xB799032429F8AFCC98E8ECC4CD1BB57D)
Полное имя : D:1Dvojnoj.forsazh.2003.x264.BDRip.(AVC).ExKinoRay.mkv
Формат : Matroska
Размер файла : 2,23 Гбайт
Продолжительность : 1 ч. 47 м.
Общий поток : 2968 Кбит/сек
Название фильма : Dvojnoj.forsazh.2003.x264.BDRip.(AVC).ExKinoRay
Дата кодирования : UTC 2013-05-10 07:14:44
Программа кодирования : mkvmerge v4.0.0 ('The Stars were mine') сборка от Jun 6 2010 16:18:42
Библиотека кодирования : libebml v1.0.0 + libmatroska v1.0.0

Видео
Идентификатор : 1
Формат : AVC
Формат/Информация : Advanced Video Codec
Профиль формата : High@L4.1
Параметр CABAC формата : Да
Параметр ReFrames формата : 10 кадров
Идентификатор кодека : V_MPEG4/ISO/AVC
Продолжительность : 1 ч. 47 м.
Битрейт : 2199 Кбит/сек
Ширина : 1024 пикс.
Высота : 436 пикс.
Соотношение сторон : 2,35:1
Частота кадров : 23,976 кадр/сек
Цветовое пространство : YUV
Подвыборка цветности : 4:2:0
Битовая глубина : 8 бит
Тип развёртки : Прогрессивная
Бит/(Пиксели*Кадры) : 0.205
Размер потока : 1,61 Гбайт (72%)
Заголовок : Rip by Enigma-Vladislav71
Библиотека кодирования : x264 core 129 r2245 bc13772
Настройки программы : cabac=1 / ref=10 / deblock=1:-3:-3 / analyse=0x3:0x133 / me=umh / subme=11 / psy=1 / psy_rd=1.00:0.00 / mixed_ref=1 / me_range=48 / chroma_me=1 / trellis=2 / 8x8dct=1 / cqm=0 / deadzone=21,11 / fast_pskip=0 / chroma_qp_offset=-2 / threads=3 / lookahead_threads=1 / sliced_threads=0 / nr=0 / decimate=0 / interlaced=0 / bluray_compat=0 / constrained_intra=0 / bframes=8 / b_pyramid=2 / b_adapt=2 / b_bias=0 / direct=3 / weightb=1 / open_gop=0 / weightp=2 / keyint=240 / keyint_min=23 / scenecut=40 / intra_refresh=0 / rc_lookahead=40 / rc=2pass / mbtree=1 / bitrate=2199 / ratetol=1.0 / qcomp=0.60 / qpmin=10 / qpmax=51 / qpstep=4 / cplxblur=20.0 / qblur=0.5 / ip_ratio=1.40 / aq=2:1.00
Язык : English

Аудио #1
Идентификатор : 2
Формат : AC-3
Формат/Информация : Audio Coding 3
Расширение режима : CM (complete main)
Идентификатор кодека : A_AC3
Продолжительность : 1 ч. 47 м.
Вид битрейта : Постоянный
Битрейт : 384 Кбит/сек
Каналы : 6 каналов
Расположение каналов : Front: L C R, Side: L R, LFE
Частота : 48,0 КГц
Битовая глубина : 16 бит
Метод сжатия : С потерями
Размер потока : 296 Мбайт (13%)
Заголовок : Дублированный
Язык : Russian

Аудио #2
Идентификатор : 3
Формат : AC-3
Формат/Информация : Audio Coding 3
Расширение режима : CM (complete main)
Идентификатор кодека : A_AC3
Продолжительность : 1 ч. 47 м.
Вид битрейта : Постоянный
Битрейт : 384 Кбит/сек
Каналы : 6 каналов
Расположение каналов : Front: L C R, Side: L R, LFE
Частота : 48,0 КГц
Битовая глубина : 16 бит
Метод сжатия : С потерями
Размер потока : 296 Мбайт (13%)
Заголовок : Английский
Язык : English

Текст #1
Идентификатор : 4
Формат : UTF-8
Идентификатор кодека : S_TEXT/UTF8
Идентификатор кодека/Информация : UTF-8 Plain Text
Язык : Russian

Текст #2
Идентификатор : 5
Формат : UTF-8
Идентификатор кодека : S_TEXT/UTF8
Идентификатор кодека/Информация : UTF-8 Plain Text
Язык : English

Меню
00:00:00.000 : en:Chapter 01
00:11:29.689 : en:Chapter 02
00:14:20.818 : en:Chapter 03
00:16:02.628 : en:Chapter 04
00:18:57.344 : en:Chapter 05
00:24:23.545 : en:Chapter 06
00:28:16.820 : en:Chapter 07
00:35:14.153 : en:Chapter 08
00:40:08.322 : en:Chapter 09
00:46:44.384 : en:Chapter 10
00:58:55.114 : en:Chapter 11
01:05:03.190 : en:Chapter 12
01:10:25.304 : en:Chapter 13
01:13:38.038 : en:Chapter 14
01:22:15.639 : en:Chapter 15
01:29:54.138 : en:Chapter 16
01:35:17.628 : en:Chapter 17
01:37:32.972 : en:Chapter 18
01:40:33.027 : en:Chapter 19
01:47:35.615 : en:01:47:35.615







Авторы релиза:
загрузка...
Правила, инструкции, FAQ!!!
Торрент  Добавлен [10 май 2013, 11:06] Скачать торрент
Скачать торрент
[ Размер 11.71 КБ / Просмотров 11 ]

Статус  
 
Размер  2.23 ГБ
Приватный: Нет (DHT включён)
.torrent скачан  342
Как залить торрент? | Как скачать Torrent? | Как смотреть и слушать онлайн?  


     Отправить личное сообщение
   
Страница 1 из 1
Показать сообщения за:  Поле сортировки  
Начать новую тему Ответить на тему

   Похожие торренты   Автор   Ответы   Просмотры   Последнее сообщение 
В этой теме нет новых непрочитанных сообщений. Скачать торрент Проверен Двойной форсаж (2 Fast 2 Furious) (2003) [MP4|320x240] <HDRip>

в форуме Видео для смартфонов и КПК, Размер: 324.95 МБ, Здоровье: ???%

Anonymous

0
0|1

58
0

25 окт 2014, 23:24

Anonymous Перейти к последнему сообщению

В этой теме нет новых непрочитанных сообщений. Скачать торрент Проверен [MP4 320x240]Форсаж 4 / Fast and the Furious (2009) BDRip

в форуме Видео для смартфонов и КПК, Размер: 322.51 МБ, Здоровье: 100%

Anonymous

0
2|1

105
0

25 окт 2014, 23:23

Anonymous Перейти к последнему сообщению

В этой теме нет новых непрочитанных сообщений. Скачать торрент Проверен Форсаж 1-6. Коллекция / The Fast And The Furious 1-6. Collection (2001-2013) BDRip | Лицензия

в форуме Боевики, Размер: 13.92 ГБ, Здоровье: 100%

Anonymous

0
323|74

132
1519

25 авг 2014, 20:36

Anonymous Перейти к последнему сообщению

В этой теме нет новых непрочитанных сообщений. Скачать торрент Проверен Форсаж 1-6. Коллекция / The Fast And The Furious 1-6. Collection (2001-2013) BDRip 1080p | 60 fps | D

в форуме 720p | 1080p, Размер: 75.66 ГБ, Здоровье: 60%

Anonymous

0
31|51

160
80

25 авг 2014, 20:32

Anonymous Перейти к последнему сообщению

В этой теме нет новых непрочитанных сообщений. Скачать торрент Форсаж 4 / Fast & Furious (Джастин Лин / Justin Lin) [2009, Боевик, триллер, драма, криминал, BDRip]

в форуме Боевики, Размер: 1.46 ГБ, Здоровье: 100%

Anonymous

0
56|19

59
0

17 фев 2014, 11:45

Anonymous Перейти к последнему сообщению



Сейчас этот форум просматривают: нет зарегистрированных пользователей и гости: 1


Вы не можете начинать темы
Вы не можете отвечать на сообщения
Вы не можете редактировать свои сообщения
Вы не можете удалять свои сообщения
Вы не можете добавлять вложения

Перейти:  

!ВНИМАНИЕ!
 Ресурс не предоставляет электронные версии произведений, а занимается лишь коллекционированием и каталогизацией ссылок, присылаемых и публикуемых на форуме нашими читателями. Если вы являетесь правообладателем какого-либо представленного материала и не желаете чтобы ссылка на него находилась в нашем каталоге, свяжитесь с нами и мы незамедлительно удалим её. Файлы для обмена на трекере предоставлены пользователями сайта, и администрация не несёт ответственности за их содержание. Просьба не заливать файлы, защищенные авторскими правами, а также файлы нелегального содержания!