На всех торрентах на трекере установлена скидка на скачивание в размере 100 процентов(а).
 Возможность скачивания торрента НЕ зависит от ограничений при низком ратио, низком аплоаде, требуемом ратио или требуемом аплоаде.


Начать новую тему Ответить на тему
Статистика раздачи
Размер: 7.19 ГБ | Добавлен: 10 май 2013, 09:41 | Скачали: 1
Сидеров: 0  [0 байт/сек]    Личеров: 0  [0 байт/сек]
Пред. тема | След. тема 

Автор
Сообщение

СообщениеДобавлено: 10 май 2013, 09:41 

Название: Трудная мишень
Оригинальное название: Hard Target
Год выпуска: 1993
Жанр: Боевик, триллер
Режиссер: Джон Ву

В фильме снимались: Жан-Клод Ван Дамм, Чак Пфаррер, Роберт Аписа, Арнольд Вослу, Лэнс Хенриксен, Дуглас Форсайт Рай, Майк Лейнерт, Янси Батлер, Ленор Бэнкс, Уилли С. Карпентер, Барбара Таскер, Кейси Леммонс, Рэнди Шерами, Элиотт Кинер, Роберт Павлович, Марко Ст. Джон, Джо Уорфилд, Жанетт Контомитра, Тед Рэйми, Том Люпо, Жуль Сильвестр, Дэвид Эфрон, Уилфорд Бримли

Вкратце:
Мужественный герой неутомимого Ван Дамма пытается помочь молодой красавице найти ее отца, ветерана вьетнамской войны, пропавшего без вести не на полях сражений, а в родной стране, а в результате — вынужден не на жизнь, а на смерть схватиться с бандой патологических злодеев, которые используют несчастных бездомных в качестве жертв своей жестокой и опасной игры.



Страна: США
Студия: Alphaville Films, Renaissance Pictures, Universal Pictures
Продолжительность: 01:36:00
Перевод: Профессиональный многоголосый, авторский одноголосый, профессиональный двухголосый

Формат: mkv
Качество: BDRip 1080p
Видео: MPEG-4 AVC, 8297 Кбит/c, 1920x1032, 23.976 кадр/c
Аудио #1: Русский (AC3, 6 ch, 448 Кбит /c) / Профессиональный многоголосый (MVO Карусель)
Аудио #2: Русский (AC3, 2 ch, 384 Кбит /c) / Профессиональный многоголосый (MVO ТВ)
Аудио #3: Русский (AC3, 2 ch, 256 Кбит /c) / Профессиональный двухголосый (MVO Lizard)
Аудио #4: Русский (AC3, 6 ch, 448 Кбит /c) / Авторский одноголосый (А. Горчаков)
Аудио #5: Русский (AC3, 6 ch, 448 Кбит /c) / Авторский одноголосый (В. Гаврилов)
Аудио #6: Английский (AC3, 6 ch, 448 Кбит /c)
Субтитры: Русские





Общее
Уникальный идентификатор : 248766708002793984446662612964317063995 (0xBB26B9A76C474CC4B850985ED9E7EB3B)
Полное имя : D:Mои раздачиTrudnaya.mishenj.1993.BDRip.(1080p)_MediaClub.mkv
Формат : Matroska
Версия формата : Version 2
Размер файла : 7,19 Гбайт
Продолжительность : 1 ч. 36 м.
Общий поток : 10,7 Мбит/сек
Название фильма : Трудная мишень (MediaClub-kaspr)
Дата кодирования : UTC 2013-05-09 16:36:09
Программа кодирования : mkvmerge v5.7.0 ('The Whirlwind') built on Aug 7 2012 14:11:40
Библиотека кодирования : libebml v1.2.3 + libmatroska v1.3.0

Видео
Идентификатор : 1
Формат : AVC
Формат/Информация : Advanced Video Codec
Профиль формата : High@L4.1
Параметр CABAC формата : Да
Параметр ReFrames формата : 4 кадра
Идентификатор кодека : V_MPEG4/ISO/AVC
Продолжительность : 1 ч. 36 м.
Битрейт : 8297 Кбит/сек
Ширина : 1920 пикселей
Высота : 1032 пикселя
Соотношение сторон : 1,85:1
Режим частоты кадров : Постоянный
Частота кадров : 23,976 кадра/сек
Цветовое пространство : YUV
Субдискретизация насыщенности : 4:2:0
Битовая глубина : 8 бит
Тип развёртки : Прогрессивная
Бит/(Пиксели*Кадры) : 0.175
Размер потока : 5,42 Гбайт (75%)
Заголовок : Трудная мишень (MediaClub-kaspr)
Библиотека кодирования : x264 core 130 r2273 b3065e6
Настройки программы : cabac=1 / ref=4 / deblock=1:-3:-3 / analyse=0x3:0x133 / me=umh / subme=11 / psy=1 / psy_rd=1.00:0.10 / mixed_ref=1 / me_range=32 / chroma_me=1 / trellis=2 / 8x8dct=1 / cqm=0 / deadzone=21,11 / fast_pskip=0 / chroma_qp_offset=-3 / threads=12 / lookahead_threads=1 / sliced_threads=0 / nr=0 / decimate=0 / interlaced=0 / bluray_compat=0 / constrained_intra=0 / bframes=6 / b_pyramid=2 / b_adapt=2 / b_bias=0 / direct=3 / weightb=1 / open_gop=0 / weightp=2 / keyint=240 / keyint_min=22 / scenecut=40 / intra_refresh=0 / rc=2pass / mbtree=0 / bitrate=8297 / ratetol=1.0 / qcomp=0.60 / qpmin=0 / qpmax=69 / qpstep=4 / cplxblur=20.0 / qblur=0.5 / ip_ratio=1.40 / pb_ratio=1.30 / aq=1:1.00
Default : Да
Forced : Нет

Аудио #1
Идентификатор : 2
Формат : AC-3
Формат/Информация : Audio Coding 3
Расширение режима : CM (complete main)
Параметр Endianness формата : Big
Идентификатор кодека : A_AC3
Продолжительность : 1 ч. 36 м.
Вид битрейта : Постоянный
Битрейт : 448 Кбит/сек
Каналы : 6 каналов
Расположение каналов : Front: L C R, Side: L R, LFE
Частота : 48,0 КГц
Битовая глубина : 16 бит
Метод сжатия : С потерями
Размер потока : 308 Мбайт (4%)
Заголовок : MVO Крусель
Язык : Russian
Default : Да
Forced : Нет

Аудио #2
Идентификатор : 3
Формат : AC-3
Формат/Информация : Audio Coding 3
Расширение режима : CM (complete main)
Параметр Endianness формата : Big
Идентификатор кодека : A_AC3
Продолжительность : 1 ч. 36 м.
Вид битрейта : Постоянный
Битрейт : 384 Кбит/сек
Каналы : 2 канала
Расположение каналов : Front: L R
Частота : 48,0 КГц
Битовая глубина : 16 бит
Метод сжатия : С потерями
Размер потока : 264 Мбайт (4%)
Заголовок : MVO TB
Язык : Russian
Default : Нет
Forced : Нет

Аудио #3
Идентификатор : 4
Формат : AC-3
Формат/Информация : Audio Coding 3
Расширение режима : CM (complete main)
Параметр Endianness формата : Big
Идентификатор кодека : A_AC3
Продолжительность : 1 ч. 36 м.
Вид битрейта : Постоянный
Битрейт : 256 Кбит/сек
Каналы : 2 канала
Расположение каналов : Front: L R
Частота : 48,0 КГц
Битовая глубина : 16 бит
Метод сжатия : С потерями
Размер потока : 176 Мбайт (2%)
Заголовок : MVO Lizard
Язык : Russian
Default : Нет
Forced : Нет

Аудио #4
Идентификатор : 5
Формат : AC-3
Формат/Информация : Audio Coding 3
Расширение режима : CM (complete main)
Параметр Endianness формата : Big
Идентификатор кодека : A_AC3
Продолжительность : 1 ч. 36 м.
Вид битрейта : Постоянный
Битрейт : 448 Кбит/сек
Каналы : 6 каналов
Расположение каналов : Front: L C R, Side: L R, LFE
Частота : 48,0 КГц
Битовая глубина : 16 бит
Метод сжатия : С потерями
Размер потока : 308 Мбайт (4%)
Заголовок : А. Гаврилов
Язык : Russian
Default : Нет
Forced : Нет

Аудио #5
Идентификатор : 6
Формат : AC-3
Формат/Информация : Audio Coding 3
Расширение режима : CM (complete main)
Параметр Endianness формата : Big
Идентификатор кодека : A_AC3
Продолжительность : 1 ч. 36 м.
Вид битрейта : Постоянный
Битрейт : 448 Кбит/сек
Каналы : 6 каналов
Расположение каналов : Front: L C R, Side: L R, LFE
Частота : 48,0 КГц
Битовая глубина : 16 бит
Метод сжатия : С потерями
Размер потока : 308 Мбайт (4%)
Заголовок : В. Горчаков
Язык : Russian
Default : Нет
Forced : Нет

Аудио #6
Идентификатор : 7
Формат : AC-3
Формат/Информация : Audio Coding 3
Расширение режима : CM (complete main)
Параметр Endianness формата : Big
Идентификатор кодека : A_AC3
Продолжительность : 1 ч. 36 м.
Вид битрейта : Постоянный
Битрейт : 448 Кбит/сек
Каналы : 6 каналов
Расположение каналов : Front: L C R, Side: L R, LFE
Частота : 48,0 КГц
Битовая глубина : 16 бит
Метод сжатия : С потерями
Размер потока : 308 Мбайт (4%)
Заголовок : Оригинал
Язык : English
Default : Нет
Forced : Нет

Текст
Идентификатор : 8
Формат : UTF-8
Идентификатор кодека : S_TEXT/UTF8
Идентификатор кодека/Информация : UTF-8 Plain Text
Язык : Russian
Default : Нет
Forced : Нет

Меню
00:00:00.000 : en:Chapter 01
00:05:00.000 : en:Chapter 02
00:10:00.000 : en:Chapter 03
00:15:00.000 : en:Chapter 04
00:20:00.000 : en:Chapter 05
00:25:00.000 : en:Chapter 06
00:30:00.000 : en:Chapter 07
00:35:00.000 : en:Chapter 08
00:40:00.000 : en:Chapter 09
00:45:00.000 : en:Chapter 10
00:50:00.000 : en:Chapter 11
00:55:00.000 : en:Chapter 12
01:00:00.000 : en:Chapter 13
01:05:00.000 : en:Chapter 14
01:10:00.000 : en:Chapter 15
01:15:00.000 : en:Chapter 16
01:20:00.000 : en:Chapter 17
01:25:00.000 : en:Chapter 18
01:30:00.000 : en:Chapter 19
01:35:00.000 : en:Chapter 20

---[NoImage] x264 [info]: frame I:1256 Avg QP:15.40 size:132020
---[NoImage] x264 [info]: frame P:40799 Avg QP:17.82 size: 69979
---[NoImage] x264 [info]: frame B:96049 Avg QP:19.86 size: 30708
---[NoImage] x264 [info]: consecutive B-frames: 5.0% 6.7% 13.2% 57.9% 11.7% 4.9% 0.7%
---[NoImage] x264 [info]: mb I I16..4: 5.7% 85.1% 9.2%
---[NoImage] x264 [info]: mb P I16..4: 4.6% 36.0% 2.2% P16..4: 24.7% 24.2% 4.4% 0.2% 0.0% skip: 3.7%
---[NoImage] x264 [info]: mb B I16..4: 1.2% 5.5% 0.2% B16..8: 31.5% 21.3% 3.0% direct:10.9% skip:26.4% L0:43.9% L1:43.1% BI:13.0%
---[NoImage] x264 [info]: 8x8 transform intra:83.0% inter:68.6%
---[NoImage] x264 [info]: direct mvs spatial:99.2% temporal:0.8%
---[NoImage] x264 [info]: coded y,uvDC,uvAC intra: 73.9% 67.7% 27.1% inter: 29.2% 31.1% 4.0%
---[NoImage] x264 [info]: i16 v,h,dc,p: 21% 17% 5% 57%
---[NoImage] x264 [info]: i8 v,h,dc,ddl,ddr,vr,hd,vl,hu: 14% 10% 13% 7% 9% 11% 10% 11% 14%
---[NoImage] x264 [info]: i4 v,h,dc,ddl,ddr,vr,hd,vl,hu: 23% 13% 17% 6% 9% 10% 8% 7% 8%
---[NoImage] x264 [info]: i8c dc,h,v,p: 29% 35% 23% 12%
---[NoImage] x264 [info]: Weighted P-Frames: Y:10.7% UV:6.7%
---[NoImage] x264 [info]: ref P L0: 54.9% 8.5% 24.3% 10.4% 1.8% 0.1%
---[NoImage] x264 [info]: ref B L0: 87.9% 9.5% 2.7%
---[NoImage] x264 [info]: ref B L1: 95.7% 4.3%
---[NoImage] x264 [info]: kb/s:8292.04

Релиз от:
загрузка...
Правила, инструкции, FAQ!!!
Торрент  Добавлен [10 май 2013, 09:41] Скачать торрент
Скачать торрент
[ Размер 18.57 КБ / Просмотров 11 ]

Статус  
 
Размер  7.19 ГБ
Приватный: Нет (DHT включён)
.torrent скачан  1
Как залить торрент? | Как скачать Torrent? | Как смотреть и слушать онлайн?  


     Отправить личное сообщение
   
Страница 1 из 1
Показать сообщения за:  Поле сортировки  
Начать новую тему Ответить на тему

   Похожие торренты   Автор   Ответы   Просмотры   Последнее сообщение 
В этой теме нет новых непрочитанных сообщений. Скачать торрент Проверен Трудная мишень 2 / Hard Target 2 (2016) HDRip | Лицензия

в форуме Боевики, Размер: 1.45 ГБ, Здоровье: 100%

Гость

0
456|112

108
31

27 авг 2016, 23:28

Гость Перейти к последнему сообщению

В этой теме нет новых непрочитанных сообщений. Скачать торрент Проверен Бегущая мишень / Moving Target (1996) BDRip [1080p]

в форуме 720p | 1080p, Размер: 4.21 ГБ, Здоровье: 100%

Гость

0
22|3

55
0

25 янв 2015, 11:45

Гость Перейти к последнему сообщению

В этой теме нет новых непрочитанных сообщений. Скачать торрент Проверен Олешковский Ян - S.T.A.L.K.E.R. : Трудная мишень для ефрейтора Кердыбаева [ravenhan (ЛИ), 2011 г., 128kbps, MP3]

в форуме Российская фантастика, фэнтези, мистика, ужасы, фанфики, Размер: 28.59 МБ, Здоровье: 0%

Anonymous

0
0|0

0
0

10 сен 2016, 13:39

Anonymous Перейти к последнему сообщению

В этой теме нет новых непрочитанных сообщений. Скачать торрент Проверен Мишень / The Target / Pyojeok / Point Blank (2014) HDTV 720p | L2

в форуме 720p | 1080p, Размер: 2.33 ГБ, Здоровье: 100%

Anonymous

0
196|8

42
3535

27 сен 2014, 22:27

Anonymous Перейти к последнему сообщению

В этой теме нет новых непрочитанных сообщений. Скачать торрент Проверен (Hard Rock) Target - Target + Captured - 1976-77, FLAC (image+.cue), lossless

в форуме Classic Rock & Hard Rock, Размер: 436.32 МБ, Здоровье: 100%

Anonymous

0
2|1

8
0

05 сен 2016, 21:54

Anonymous Перейти к последнему сообщению



Сейчас этот форум просматривают: нет зарегистрированных пользователей и гости: 3


Вы не можете начинать темы
Вы не можете отвечать на сообщения
Вы не можете редактировать свои сообщения
Вы не можете удалять свои сообщения
Вы не можете добавлять вложения

Перейти:  

!ВНИМАНИЕ!
 Ресурс не предоставляет электронные версии произведений, а занимается лишь коллекционированием и каталогизацией ссылок, присылаемых и публикуемых на форуме нашими читателями. Если вы являетесь правообладателем какого-либо представленного материала и не желаете чтобы ссылка на него находилась в нашем каталоге, свяжитесь с нами и мы незамедлительно удалим её. Файлы для обмена на трекере предоставлены пользователями сайта, и администрация не несёт ответственности за их содержание. Просьба не заливать файлы, защищенные авторскими правами, а также файлы нелегального содержания!