На всех торрентах на трекере установлена скидка на скачивание в размере 100 процентов(а).
 Возможность скачивания торрента НЕ зависит от ограничений при низком ратио, низком аплоаде, требуемом ратио или требуемом аплоаде.


Начать новую тему Ответить на тему
Статистика раздачи
Размер: 10.59 ГБ | Добавлен: 10 май 2013, 09:16 | Скачали: 11
Сидеров: 0  [0 байт/сек]    Личеров: 0  [0 байт/сек]
Пред. тема | След. тема 

Автор
Сообщение

СообщениеДобавлено: 10 май 2013, 09:16 

Название: Идеальный голос
Оригинальное название: Pitch Perfect
Год выпуска: 2012
Жанр: Комедия, музыка
Выпущено: США, Brownstone Productions, Gold Circle Films
Режиссер: Джейсон Мур

В фильме снимались: Анна Кендрик, Скайлар Эстин, Бен Платт, Бриттани Сноу, Анна Кэмп, Ребел Уилсон, Алексис Кнапп, Эстер Дин, Хана Мэй Ли, Ванета Уолмсли, Шелли Регнер, Адам Дивайн, Уткарш Амбудкар, Майкл Вируэт, Дэвид Дель Рио, Элизабет Бэнкс, Джон Майкл Хиггинс, Фредди Строма, Джейкоб Высоцки, Скотт Шилстоун, Брок Келли, Дрю Баттлс, Катрина Деспейн, Камерон Дин Стюарт, Кетер Донохью, Карен Гонзалез, Лорен Грос, Майкл Александр, Тайлер Форрест, Джабари Томас, Джудд Лорманд, Кристофер Минц-Плассе, Стивен Бэйли, Майкл Анайа, Брайан Сильвер, Уэс Лагарде, Дональд Уоткинс, Джессика Джайн, Нат Ховард, Роуз Дэвис, Чиара Питтман, Эмилия Грейвз, Эмили Родригез, Чейз Кукси

Вкратце: Картина основывается на книге Мики Рэпкина «Пой идеально: Погоня за славной вокалиста а капелла», в которой рассказывается о студентке, внезапно обнаружившей в себе страсть к пению а капелла, то есть, без музыкального сопровождения.



Формат: mkv
Качество: BDRip (1080p)
Видео: MPEG-4 AVC, 11300 Кбит/с, 1920x1036
Аудио: Русский (DTS, 6 ch, 768 Кбит/с), английский (DTS, 6 ch, 1510 Кбит/с)

Продолжительность: 01:52:07
Перевод: Дублированный [лицензия]
Субтитры: Русские, английские, румынские
Pitch.Perfect.2012.BluRay.1080p.DTS.x264.Rus.Eng.Subs-CHD
Format : Matroska
File size : 10.6 GiB
Duration : 1h 52mn
Overall bit rate : 13.5 Mbps
Encoded date : UTC 2013-05-09 19:50:56
Writing application : mkvmerge v4.9.1 ('Ich will') built on Jul 11 2011 23:53:15
Writing library : libebml v1.2.1 + libmatroska v1.1.1

Video
ID : 1
Format : AVC
Format/Info : Advanced Video Codec
Format profile : High@L4.1
Format settings, CABAC : Yes
Format settings, ReFrames : 4 frames
Codec ID : V_MPEG4/ISO/AVC
Duration : 1h 52mn
Bit rate : 11.3 Mbps
Width : 1 920 pixels
Height : 1 036 pixels
Display aspect ratio : 1.853
Frame rate : 23.976 fps
Color space : YUV
Chroma subsampling : 4:2:0
Bit depth : 8 bits
Scan type : Progressive
Bits/(Pixel*Frame) : 0.236
Stream size : 8.60 GiB (81%)
Title : Pitch.Perfect.2012
Writing library : x264 core 125 r2208 d9d2288
Encoding settings : cabac=1 / ref=4 / deblock=1:-3:-3 / analyse=0x3:0x113 / me=umh /
subme=10 / psy=1 / psy_rd=1.00:0.05 / mixed_ref=1 / me_range=32 / chroma_me=1 / trellis=2 /
8x8dct=1 / cqm=0 / deadzone=21,11 / fast_pskip=0 / chroma_qp_offset=-2 / threads=8 /
lookahead_threads=1 / sliced_threads=0 / nr=0 / decimate=1 / interlaced=0 / bluray_compat=0 /
constrained_intra=0 / bframes=5 / b_pyramid=2 / b_adapt=2 / b_bias=0 / direct=3 / weightb=1 /
open_gop=0 / weightp=2 / keyint=250 / keyint_min=23 / scenecut=40 / intra_refresh=0 / rc=2pass /
mbtree=0 / bitrate=11255 / ratetol=1.0 / qcomp=0.70 / qpmin=0 / qpmax=69 / qpstep=4 /
cplxblur=20.0 / qblur=0.5 / ip_ratio=1.40 / pb_ratio=1.30 / aq=2:1.00
Language : English

Audio #1
ID : 2
Format : DTS
Format/Info : Digital Theater Systems
Codec ID : A_DTS
Duration : 1h 52mn
Bit rate mode : Constant
Bit rate : 755 Kbps
Channel(s) : 6 channels
Channel positions : Front: L C R, Side: L R, LFE
Sampling rate : 48.0 KHz
Bit depth : 24 bits
Compression mode : Lossy
Stream size : 605 MiB (6%)
Title : CEE
Language : Russian

Audio #2
ID : 3
Format : DTS
Format/Info : Digital Theater Systems
Codec ID : A_DTS
Duration : 1h 52mn
Bit rate mode : Constant
Bit rate : 1 510 Kbps
Channel(s) : 6 channels
Channel positions : Front: L C R, Side: L R, LFE
Sampling rate : 48.0 KHz
Bit depth : 24 bits
Compression mode : Lossy
Stream size : 1.18 GiB (11%)
Language : English

Text #1
ID : 4
Format : UTF-8
Codec ID : S_TEXT/UTF8
Codec ID/Info : UTF-8 Plain Text
Title : Romanian
Language : Romanian

Text #2
ID : 5
Format : UTF-8
Codec ID : S_TEXT/UTF8
Codec ID/Info : UTF-8 Plain Text
Title : Grobt
Language : Russian

Text #3
ID : 6
Format : UTF-8
Codec ID : S_TEXT/UTF8
Codec ID/Info : UTF-8 Plain Text
Language : English

Menu
00:00:00.000 : en:00:00:00.000
00:04:32.564 : en:00:04:32.564
00:09:17.932 : en:00:09:17.932
00:15:50.908 : en:00:15:50.908
00:19:45.643 : en:00:19:45.643
00:23:08.470 : en:00:23:08.470
00:27:47.332 : en:00:27:47.332
00:32:45.755 : en:00:32:45.755
00:38:59.212 : en:00:38:59.212
00:43:53.881 : en:00:43:53.881
00:49:57.411 : en:00:49:57.411
00:54:20.466 : en:00:54:20.466
01:01:48.580 : en:01:01:48.580
01:06:26.441 : en:01:06:26.441
01:11:56.270 : en:01:11:56.270
01:18:56.899 : en:01:18:56.899
01:23:23.165 : en:01:23:23.165
01:33:42.116 : en:01:33:42.116
01:38:49.590 : en:01:38:49.590
01:44:46.238 : en:01:44:46.238

загрузка...
Правила, инструкции, FAQ!!!
Торрент  Добавлен [10 май 2013, 09:16] Скачать торрент
Скачать торрент
[ Размер 26.93 КБ / Просмотров 7 ]

Статус  
 
Размер  10.59 ГБ
Приватный: Нет (DHT включён)
.torrent скачан  11
Как залить торрент? | Как скачать Torrent? | Как смотреть и слушать онлайн?  


     Отправить личное сообщение
   
Страница 1 из 1
Показать сообщения за:  Поле сортировки  
Начать новую тему Ответить на тему

   Похожие торренты   Автор   Ответы   Просмотры   Последнее сообщение 
В этой теме нет новых непрочитанных сообщений. Скачать торрент Проверен Идеальный шторм / The Perfect Storm (2000) BDRip 1080p | D, A

в форуме 720p | 1080p, Размер: 7.75 ГБ, Здоровье: 100%

Anonymous

0
38|34

30
23

25 апр 2015, 18:36

Anonymous Перейти к последнему сообщению

В этой теме нет новых непрочитанных сообщений. Скачать торрент Идеальный незнакомец / Perfect Stranger (2007) BDRip 1080p

в форуме 720p | 1080p, Размер: 5.81 ГБ, Здоровье: 0%

Anonymous

0
0|0

42
0

01 мар 2014, 23:29

Anonymous Перейти к последнему сообщению

В этой теме нет новых непрочитанных сообщений. Скачать торрент Проверен Идеальный день / A Perfect Day (2015) BDRip | L

в форуме Драмы, Мелодрамы, Размер: 1.46 ГБ, Здоровье: 0%

Гость

0
0|0

117
2

11 апр 2016, 21:22

Гость Перейти к последнему сообщению

В этой теме нет новых непрочитанных сообщений. Скачать торрент Идеальный конец / A Perfect Ending (2012) DVDRip | Sub

в форуме Драмы, Мелодрамы, Размер: 1.29 ГБ, Здоровье: 0%

Anonymous

0
0|0

117
0

02 фев 2014, 08:57

Anonymous Перейти к последнему сообщению

В этой теме нет новых непрочитанных сообщений. Скачать торрент Идеальный побег / A Perfect Getaway (Дэвид Туи / David Twohy) [2009, триллер, драма, детектив, BDRip-AVC] [Theatrical Cut]

в форуме 720p | 1080p, Размер: 2.59 ГБ, Здоровье: 100%

Anonymous

0
25|8

46
0

19 фев 2014, 11:41

Anonymous Перейти к последнему сообщению



Сейчас этот форум просматривают: нет зарегистрированных пользователей и гости: 2


Вы не можете начинать темы
Вы не можете отвечать на сообщения
Вы не можете редактировать свои сообщения
Вы не можете удалять свои сообщения
Вы не можете добавлять вложения

Перейти:  

!ВНИМАНИЕ!
 Ресурс не предоставляет электронные версии произведений, а занимается лишь коллекционированием и каталогизацией ссылок, присылаемых и публикуемых на форуме нашими читателями. Если вы являетесь правообладателем какого-либо представленного материала и не желаете чтобы ссылка на него находилась в нашем каталоге, свяжитесь с нами и мы незамедлительно удалим её. Файлы для обмена на трекере предоставлены пользователями сайта, и администрация не несёт ответственности за их содержание. Просьба не заливать файлы, защищенные авторскими правами, а также файлы нелегального содержания!