На всех торрентах на трекере установлена скидка на скачивание в размере 100 процентов(а).
 Возможность скачивания торрента НЕ зависит от ограничений при низком ратио, низком аплоаде, требуемом ратио или требуемом аплоаде.


Начать новую тему Ответить на тему
Статистика раздачи
Размер: 7.76 ГБ | Добавлен: 09 май 2013, 22:17 | Скачали: 29
Сидеров: 8  [0 байт/сек]    Личеров: 1  [0 байт/сек]
Пред. тема | След. тема 

Автор
Сообщение

СообщениеДобавлено: 09 май 2013, 22:17 

Название: Знаки
Оригинальное название: Signs
Год выхода: 2002
Жанр: фантастика, триллер, драма, детектив
Режиссер: М. Найт Шьямалан

В фильме снимались: Мэл Гибсон, Хоакин Феникс, Рори Калкин, Эбигейл Бреслин, Черри Джонс, М. Найт Шьямалан, Патриция Кэлембер, Тед Саттон, Меррит Уивер, Лэнни Флаэрти

Вкратце: В штате Пенсильвания вместе с двумя своими детьми и братом Мерриллом живет фермер Греем Хесс. Спокойная жизнь этих людей и их обычный уклад жизни неожиданно будет разрушен странными событиями.

Начинается все с того, что на фермерских кукурузных полях загадочным образом укладываются огромные круги, диаметр которых достигает 150 метров. Возможно, появившиеся на полях круги — это следы деятельности каких-нибудь внеземных цивилизаций?

Греем пытается разобраться, что же происходит на его ферме и с его близкими. Ему надо разгадать загадку таинственных «знаков», чтобы не дать развалиться окружающему его привычному миру…



Выпущено: Touchstone Pictures
Продолжительность: 01:46:31
Перевод: Дублированный (лицензия)

Формат: mkv
Кодек: x264
Качество: BDRip (источник: Blu-ray Disc)
Видео: 1920x1036 (1,85:1), 23.976 fps, 9150 kbps
Аудио #1: AC-3, 6 ch, 640 kbps (Rus)
Аудио #2: AC-3, 6 ch, 640 kbps (Eng)
Субтитры: Русские (форс,полные), Английские


Скриншоты

Общее
Уникальный идентификатор : 194779200157181666134244072872793210362 (0x92891C0277AE50A180CECFB7F9BDFDFA)
Полное имя : Signs.2002.BDRip.1080p.Rus.Eng.mkv
Формат : Matroska
Версия формата : Version 2
Размер файла : 7,76 Гбайт
Продолжительность : 1 ч. 46 м.
Общий поток : 10,4 Мбит/сек
Название фильма : Знаки / Signs (2002)
Дата кодирования : UTC 2013-05-09 17:31:19
Программа кодирования : mkvmerge v5.8.0 ('No Sleep / Pillow') built on Sep 2 2012 15:37:04
Библиотека кодирования : libebml v1.2.3 + libmatroska v1.3.0

Видео
Идентификатор : 1
Формат : AVC
Формат/Информация : Advanced Video Codec
Профиль формата : High@L4.1
Параметр CABAC формата : Да
Параметр ReFrames формата : 4 кадра
Идентификатор кодека : V_MPEG4/ISO/AVC
Продолжительность : 1 ч. 46 м.
Битрейт : 9150 Кбит/сек
Ширина : 1920 пикселей
Высота : 1036 пикселей
Соотношение сторон : 1,853
Частота кадров : 23,976 кадра/сек
Цветовое пространство : YUV
Субдискретизация насыщенности : 4:2:0
Битовая глубина : 8 бит
Тип развёртки : Прогрессивная
Бит/(Пиксели*Кадры) : 0.192
Размер потока : 6,65 Гбайт (86%)
Заголовок : Release by AlexKa
Библиотека кодирования : x264 core 132 r2310 76a5c3a
Настройки программы : cabac=1 / ref=4 / deblock=1:-3:-3 / analyse=0x3:0x133 / me=umh / subme=10 / psy=1 / psy_rd=1.00:0.10 / mixed_ref=1 / me_range=32 / chroma_me=1 / trellis=2 / 8x8dct=1 / cqm=0 / deadzone=21,11 / fast_pskip=0 / chroma_qp_offset=-3 / threads=12 / lookahead_threads=1 / sliced_threads=0 / nr=0 / decimate=0 / interlaced=0 / bluray_compat=0 / constrained_intra=0 / bframes=3 / b_pyramid=2 / b_adapt=2 / b_bias=0 / direct=3 / weightb=1 / open_gop=0 / weightp=2 / keyint=240 / keyint_min=23 / scenecut=40 / intra_refresh=0 / rc=2pass / mbtree=0 / bitrate=9150 / ratetol=1.0 / qcomp=0.60 / qpmin=0 / qpmax=69 / qpstep=4 / cplxblur=20.0 / qblur=0.5 / ip_ratio=1.40 / pb_ratio=1.30 / aq=1:0.80
Язык : English

Аудио #1
Идентификатор : 2
Формат : AC-3
Формат/Информация : Audio Coding 3
Расширение режима : CM (complete main)
Идентификатор кодека : A_AC3
Продолжительность : 1 ч. 46 м.
Вид битрейта : Постоянный
Битрейт : 640 Кбит/сек
Каналы : 6 каналов
Расположение каналов : Front: L C R, Side: L R, LFE
Частота : 48,0 КГц
Битовая глубина : 16 бит
Метод сжатия : С потерями
Размер потока : 488 Мбайт (6%)
Заголовок : Rus
Язык : Russian

Аудио #2
Идентификатор : 3
Формат : AC-3
Формат/Информация : Audio Coding 3
Расширение режима : CM (complete main)
Идентификатор кодека : A_AC3
Продолжительность : 1 ч. 46 м.
Вид битрейта : Постоянный
Битрейт : 640 Кбит/сек
Каналы : 6 каналов
Расположение каналов : Front: L C R, Side: L R, LFE
Частота : 48,0 КГц
Битовая глубина : 16 бит
Метод сжатия : С потерями
Размер потока : 488 Мбайт (6%)
Заголовок : Eng
Язык : English

Текст #1
Идентификатор : 4
Формат : UTF-8
Идентификатор кодека : S_TEXT/UTF8
Идентификатор кодека/Информация : UTF-8 Plain Text
Заголовок : Rus forced
Язык : Russian

Текст #2
Идентификатор : 5
Формат : UTF-8
Идентификатор кодека : S_TEXT/UTF8
Идентификатор кодека/Информация : UTF-8 Plain Text
Заголовок : Rus
Язык : Russian

Текст #3
Идентификатор : 6
Формат : UTF-8
Идентификатор кодека : S_TEXT/UTF8
Идентификатор кодека/Информация : UTF-8 Plain Text
Заголовок : Eng
Язык : English

Меню
00:00:00.000 : :Chapter 01
00:02:05.041 : :Chapter 02
00:07:25.278 : :Chapter 03
00:11:51.544 : :Chapter 04
00:20:33.565 : :Chapter 05
00:25:38.536 : :Chapter 06
00:29:14.753 : :Chapter 07
00:30:37.460 : :Chapter 08
00:35:19.742 : :Chapter 09
00:39:29.367 : :Chapter 10
00:48:51.261 : :Chapter 11
00:53:03.972 : :Chapter 12
00:57:17.392 : :Chapter 13
00:58:52.529 : :Chapter 14
01:05:46.025 : :Chapter 15
01:09:30.166 : :Chapter 16
01:12:41.357 : :Chapter 17
01:18:44.970 : :Chapter 18
01:25:57.402 : :Chapter 19
01:35:49.201 : :Chapter 20
01:39:31.465 : :Chapter 21
01:46:30.717 : :Chapter 22
x264 [info]: frame I:863 Avg QP:14.63 size:200480
x264 [info]: frame P:46118 Avg QP:17.02 size: 87986
x264 [info]: frame B:106244 Avg QP:19.01 size: 28964
загрузка...
Правила, инструкции, FAQ!!!
Торрент  Добавлен [09 май 2013, 22:17] Скачать торрент
Скачать торрент
[ Размер 39.27 КБ / Просмотров 8 ]

Статус  
 
Размер  7.76 ГБ
Приватный: Нет (DHT включён)
.torrent скачан  29
Как залить торрент? | Как скачать Torrent? | Как смотреть и слушать онлайн?  


     Отправить личное сообщение
   
Страница 1 из 1
Показать сообщения за:  Поле сортировки  
Начать новую тему Ответить на тему

   Похожие торренты   Автор   Ответы   Просмотры   Последнее сообщение 
В этой теме нет новых непрочитанных сообщений. Скачать торрент Проверен Erlanger G./ Эрлангер Г. - Signs of the Times.The Zodiac in Jewish Tradition / Знаки времен. Зодиак в еврейской традиции [2003, PDF, RUS]

в форуме Астрология, Размер: 26.69 МБ, Здоровье: 0%

Anonymous

0
0|0

1
1

11 сен 2016, 23:25

Anonymous Перейти к последнему сообщению

В этой теме нет новых непрочитанных сообщений. Скачать торрент Проверен Познай себя. - D. Frank / Фрэнк Д. - Baby Signs. / Дети и знаки Зодиака. Как определить судьбу вашего ребенка по звездам. [1997, PDF, RUS]

в форуме Астрология, Размер: 23.06 МБ, Здоровье: 100%

Anonymous

0
1|0

9
1

11 сен 2016, 23:15

Anonymous Перейти к последнему сообщению

В этой теме нет новых непрочитанных сообщений. Скачать торрент Проверен (Melodic Hard Rock) Vital Signs - Vital Signs - 2002, MP3, 320 kbps

в форуме AOR (Melodic Hard Rock, Arena rock), Размер: 84.15 МБ, Здоровье: 0%

Anonymous

0
0|0

0
0

08 окт 2016, 01:38

Anonymous Перейти к последнему сообщению

В этой теме нет новых непрочитанных сообщений. Скачать торрент Проверен Три икса / xXx (2002) BDRip 1080p

в форуме 720p | 1080p, Размер: 7.95 ГБ, Здоровье: 100%

Anonymous

0
58|7

27
22

08 апр 2015, 21:32

Anonymous Перейти к последнему сообщению

В этой теме нет новых непрочитанных сообщений. Скачать торрент Проверен Неверная / Unfaithful (2002) BDRip 1080p

в форуме 720p | 1080p, Размер: 7.75 ГБ, Здоровье: 68%

Anonymous

0
45|66

24
55

05 фев 2015, 17:58

Anonymous Перейти к последнему сообщению



Сейчас этот форум просматривают: нет зарегистрированных пользователей и гости: 1


Вы не можете начинать темы
Вы не можете отвечать на сообщения
Вы не можете редактировать свои сообщения
Вы не можете удалять свои сообщения
Вы не можете добавлять вложения

Перейти:  

!ВНИМАНИЕ!
 Ресурс не предоставляет электронные версии произведений, а занимается лишь коллекционированием и каталогизацией ссылок, присылаемых и публикуемых на форуме нашими читателями. Если вы являетесь правообладателем какого-либо представленного материала и не желаете чтобы ссылка на него находилась в нашем каталоге, свяжитесь с нами и мы незамедлительно удалим её. Файлы для обмена на трекере предоставлены пользователями сайта, и администрация не несёт ответственности за их содержание. Просьба не заливать файлы, защищенные авторскими правами, а также файлы нелегального содержания!