На всех торрентах на трекере установлена скидка на скачивание в размере 100 процентов(а).
 Возможность скачивания торрента НЕ зависит от ограничений при низком ратио, низком аплоаде, требуемом ратио или требуемом аплоаде.


Начать новую тему Ответить на тему
Статистика раздачи
Размер: 7.95 ГБ | Добавлен: 09 май 2013, 17:01 | Скачали: 83
Сидеров: 35  [0 байт/сек]    Личеров: 4  [0 байт/сек]
Пред. тема | След. тема 

Автор
Сообщение

СообщениеДобавлено: 09 май 2013, 17:01 

Название: Александр
Оригинальное название: Alexander
Год выхода: 2004
Жанр: боевик, драма, мелодрама, приключения, военный, биография, история
Режиссер: Оливер Стоун

В фильме снимались:Колин Фаррелл (Alexander), Анджелина Джоли (Olympias), Вэл Килмер (Philip), Энтони Хопкинс (Old Ptolemy), Джаред Лето (Hephaistion), Розарио Доусон (Roxane), Джонатан Риз Майерс (Cassander), Рори МакКанн (Crateros), Гари Стретч (Cleitus), Йен Битти (Antigonus), Нил Джексон (Perdiccas), Раз Деган (Darius III)

Вкратце:
Спустя 40 лет после гибели Александра пожилой Птолемей, один из ближайших соратников Македонского, ставший после его смерти наместником Египта, решает рассказать и записать историю побед великого полководца. В течение восьми лет войско Александра Великого двигалось на Восток, к берегам мирового Океана. Покорив Западную и Центральную Азию, Македонский первым ступил на загадочную и таинственную землю древней Индии. Об этом он мечтал ещё в детстве, слушая мифы о Трое, подвигах Геракла и Ахиллеса...



Страна: Германия , США , Нидерланды , Франция , Великобритания , Италия

Продолжительность: 02:55:25
Перевод: Профессиональный (дублированный)

Формат: mkv
Кодек: H.264
Качество: HD-DVD Rip 1080p
Видео: AVC, 1920x816 (2.35:1), 6040 kbps, 23,976 fps, 0,161 bpp
Звук: русский / AC3 / 5.1 / 48 kHz / 448 kbps / 16 bit
Субтитры: Russian , english (srt)


x264 [info]: frame I:1647 Avg QP:18.85 size:138182
x264 [info]: frame P:62260 Avg QP:21.11 size: 54896
x264 [info]: frame B:188448 Avg QP:23.10 size: 22801
Общее
Уникальный идентификатор : 251749311999898502986971514242073219181 (0xBD65276272B753059D6E94C56BE9D06D)
Полное имя : E:торрентAleksandr.2004.HDDVD.Rip.1080p -F.HD.mkv
Формат : Matroska
Версия формата : Version 2
Размер файла : 7,95 Гбайт
Продолжительность : 2 ч. 55 м.
Общий поток : 6486 Кбит/сек
Дата кодирования : UTC 2012-09-01 04:18:15
Программа кодирования : mkvmerge v5.4.0 ('Piper') built on Mar 10 2012 13:34:39
Библиотека кодирования : libebml v1.2.3 + libmatroska v1.3.0

Видео
Идентификатор : 1
Формат : AVC
Формат/Информация : Advanced Video Codec
Профиль формата : High@L4.1
Параметр CABAC формата : Да
Параметр ReFrames формата : 5 кадров
Идентификатор кодека : V_MPEG4/ISO/AVC
Продолжительность : 2 ч. 55 м.
Битрейт : 6040 Кбит/сек
Ширина : 1920 пикселей
Высота : 816 пикселей
Соотношение сторон : 2,35:1
Режим частоты кадров : Постоянный
Частота кадров : 23,976 кадра/сек
Цветовое пространство : YUV
Субдискретизация насыщенности : 4:2:0
Битовая глубина : 8 бит
Тип развёртки : Прогрессивная
Бит/(Пиксели*Кадры) : 0.161
Размер потока : 7,24 Гбайт (91%)
Библиотека кодирования : x264 core 125 r2208 d9d2288
Настройки программы : cabac=1 / ref=5 / deblock=1:-3:-3 / analyse=0x3:0x113 / me=umh / subme=10 / psy=1 / psy_rd=1.00:0.00 / mixed_ref=1 / me_range=32 / chroma_me=1 / trellis=2 / 8x8dct=1 / cqm=0 / deadzone=21,11 / fast_pskip=0 / chroma_qp_offset=2 / threads=6 / lookahead_threads=1 / sliced_threads=0 / nr=0 / decimate=1 / interlaced=0 / bluray_compat=0 / constrained_intra=0 / bframes=8 / b_pyramid=2 / b_adapt=2 / b_bias=0 / direct=3 / weightb=1 / open_gop=0 / weightp=2 / keyint=240 / keyint_min=23 / scenecut=40 / intra_refresh=0 / rc=2pass / mbtree=0 / bitrate=6040 / ratetol=1.0 / qcomp=0.70 / qpmin=10 / qpmax=51 / qpstep=4 / cplxblur=20.0 / qblur=0.5 / ip_ratio=1.40 / pb_ratio=1.30 / aq=1:0.95
Язык : English
Default : Да
Forced : Нет
Основные цвета : BT.709
Характеристики трансфера : BT.709
Коэффициенты матрицы : BT.709

Аудио
Идентификатор : 2
Формат : AC-3
Формат/Информация : Audio Coding 3
Расширение режима : CM (complete main)
Параметр Endianness формата : Big
Идентификатор кодека : A_AC3
Продолжительность : 2 ч. 55 м.
Вид битрейта : Постоянный
Битрейт : 448 Кбит/сек
Каналы : 6 каналов
Расположение каналов : Front: L C R, Side: L R, LFE
Частота : 48,0 КГц
Битовая глубина : 16 бит
Метод сжатия : С потерями
Размер потока : 562 Мбайт (7%)
Язык : Russian
Default : Да
Forced : Нет

Текст #1
Идентификатор : 3
Формат : UTF-8
Идентификатор кодека : S_TEXT/UTF8
Идентификатор кодека/Информация : UTF-8 Plain Text
Язык : Russian
Default : Нет
Forced : Нет

Текст #2
Идентификатор : 4
Формат : UTF-8
Идентификатор кодека : S_TEXT/UTF8
Идентификатор кодека/Информация : UTF-8 Plain Text
Язык : English
Default : Нет
Forced : Нет
загрузка...
Правила, инструкции, FAQ!!!
Торрент  Добавлен [09 май 2013, 17:01] Скачать торрент
Скачать торрент
[ Размер 40.25 КБ / Просмотров 5 ]

Статус  
 
Размер  7.95 ГБ
Приватный: Нет (DHT включён)
.torrent скачан  83
Как залить торрент? | Как скачать Torrent? | Как смотреть и слушать онлайн?  


     Отправить личное сообщение
   
Страница 1 из 1
Показать сообщения за:  Поле сортировки  
Начать новую тему Ответить на тему

   Похожие торренты   Автор   Ответы   Просмотры   Последнее сообщение 
В этой теме нет новых непрочитанных сообщений. Скачать торрент Обитель зла 2: Апокалипсис / Resident Evil 2 / Resident Evil: Nemesis / Resident Evil: Apocalypse (Александр Уитт / Alexander Witt) [2004, зомби-экшн, BDRip] [театральная версия / theatrical cut] Dub

в форуме Фантастика, Фэнтези, Размер: 1.46 ГБ, Здоровье: 100%

Anonymous

0
56|19

77
0

22 апр 2014, 11:47

Anonymous Перейти к последнему сообщению

В этой теме нет новых непрочитанных сообщений. Скачать торрент Троя / Troy (2004) BDRip 1080p | Театральная версия

в форуме 720p | 1080p, Размер: 15 ГБ, Здоровье: 100%

Anonymous

0
18|2

77
40

06 фев 2014, 23:40

Anonymous Перейти к последнему сообщению

В этой теме нет новых непрочитанных сообщений. Скачать торрент Александр / Alexander Revisited: The Final Cut (2004) BDRip 1080p

в форуме 720p | 1080p, Размер: 17.58 ГБ, Здоровье: 100%

Anonymous

0
4|2

60
4

04 мар 2014, 21:29

Anonymous Перейти к последнему сообщению

В этой теме нет новых непрочитанных сообщений. Скачать торрент Проверен Несносные боссы / Horrible Bosses (2011) BDRip 1080p | Театральная версия

в форуме 720p | 1080p, Размер: 7.74 ГБ, Здоровье: 100%

Anonymous

0
173|15

19
118

04 дек 2014, 17:34

Anonymous Перейти к последнему сообщению

В этой теме нет новых непрочитанных сообщений. Скачать торрент Проверен Забытое / The Forgotten (2004) HDRip | D | Театральная версия

в форуме Фантастика, Фэнтези, Размер: 1.45 ГБ, Здоровье: 100%

Anonymous

0
64|5

68
285

15 ноя 2014, 13:18

Anonymous Перейти к последнему сообщению



Сейчас этот форум просматривают: нет зарегистрированных пользователей и гости: 1


Вы не можете начинать темы
Вы не можете отвечать на сообщения
Вы не можете редактировать свои сообщения
Вы не можете удалять свои сообщения
Вы не можете добавлять вложения

Перейти:  

!ВНИМАНИЕ!
 Ресурс не предоставляет электронные версии произведений, а занимается лишь коллекционированием и каталогизацией ссылок, присылаемых и публикуемых на форуме нашими читателями. Если вы являетесь правообладателем какого-либо представленного материала и не желаете чтобы ссылка на него находилась в нашем каталоге, свяжитесь с нами и мы незамедлительно удалим её. Файлы для обмена на трекере предоставлены пользователями сайта, и администрация не несёт ответственности за их содержание. Просьба не заливать файлы, защищенные авторскими правами, а также файлы нелегального содержания!