На всех торрентах на трекере установлена скидка на скачивание в размере 100 процентов(а).
 Возможность скачивания торрента НЕ зависит от ограничений при низком ратио, низком аплоаде, требуемом ратио или требуемом аплоаде.


Начать новую тему Ответить на тему
Статистика раздачи
Размер: 1.46 ГБ | Добавлен: 09 май 2013, 12:19 | Скачали: 13
Сидеров: 14  [0 байт/сек]    Личеров: 0  [0 байт/сек]
Пред. тема | След. тема 

Автор
Сообщение

СообщениеДобавлено: 09 май 2013, 12:19 

Год выпуска: 2012
Производство: Великобритания / BBC Films, Blueprint Pictures, Goldcrest Pictures, Lip Sync Productions, UK Film Council
Жанр: Мелодрама
Продолжительность: 01:42:45
Перевод: Профессиональный (полное дублирование) лицензия
Субтитры: Английские, русские |отключаемые|


Режиссер: Ол Паркер / Ol Parker

В фильме снимались: Дакота Фаннинг, Джереми Ирвин, Пэдди Консидайн, Оливия Уильямс, Кая Скоделарио, Роуз Лесли, Сара Хэдлэнд, Джо Коул, Рэки Айола, Патрик Балади...

Вкратце: Тессе семнадцать, и она хочет жить нормальной жизнью. Она мечтает о тех же вещах, что и все подростки. Но что делать, если времени осталось мало? Тесса принимает решение, прожить все, что отмерено, так, чтобы ни одна минута не пропала зря.
Девушка составляет список того, что обязательно нужно успеть: потерять невинность, попробовать наркотики, прыгнуть с парашютом, по-настоящему полюбить. Она шаг за шагом воплощает свои намерения. Но внезапно вспыхнувшее чувство к соседскому парню Адаму меняет все ее планы.






Качество: BDRip-AVC [Blu-Ray Remux]
Формат: MKV
Видео: H.264, 984x412 (2.40:1), 23,976 fps, 1587 Кbps, 0.163 bit/pixel
Аудио#1: 48 kHz, AC3 Dolby Digital, 3/2 (L,C,R,l,r) + LFE ch, ~448.00 kbps avg | RUS



Автор рипа:



Общее
Уникальный идентификатор : 236977698656919843630841443773481753599 (0xB2483E9E1335C28DA9EC4B1560D01BFF)
Полное имя : Sejchas.Samoje.Vremja.2012.D.BDRip.x264.potroks.mkv
Формат : Matroska
Версия формата : Version 4 / Version 2
Размер файла : 1,46 Гбайт
Продолжительность : 1 ч. 42 м.
Общий поток : 2036 Кбит/сек
Название фильма : -=POTROKS=-
Дата кодирования : UTC 2013-05-09 07:45:41
Программа кодирования : mkvmerge v5.9.0 ('On The Loose') built on Dec 15 2012 16:39:58
Библиотека кодирования : libebml v1.3.0 + libmatroska v1.4.0

Видео
Идентификатор : 1
Формат : AVC
Формат/Информация : Advanced Video Codec
Профиль формата : High@L4.1
Параметр CABAC формата : Да
Параметр ReFrames формата : 10 кадров
Идентификатор кодека : V_MPEG4/ISO/AVC
Продолжительность : 1 ч. 42 м.
Битрейт : 1587 Кбит/сек
Ширина : 984 пикселя
Высота : 412 пикселей
Соотношение сторон : 2,40:1
Режим частоты кадров : Постоянный
Частота кадров : 24,000 кадра/сек
Цветовое пространство : YUV
Субдискретизация насыщенности : 4:2:0
Битовая глубина : 8 бит
Тип развёртки : Прогрессивная
Бит/(Пиксели*Кадры) : 0.163
Размер потока : 1,11 Гбайт (76%)
Заголовок : Now Is Good
Библиотека кодирования : x264 core 128 r2216M 198a7ea
Настройки программы : cabac=1 / ref=11 / deblock=1:-3:-2 / analyse=0x3:0x133 / me=umh / subme=11 / psy=1 / psy_rd=0.30:0.00 / mixed_ref=1 / me_range=32 / chroma_me=1 / trellis=2 / 8x8dct=1 / cqm=0 / deadzone=21,11 / fast_pskip=0 / chroma_qp_offset=-2 / threads=6 / lookahead_threads=1 / sliced_threads=0 / nr=0 / decimate=1 / interlaced=0 / bluray_compat=0 / constrained_intra=0 / bframes=12 / b_pyramid=1 / b_adapt=2 / b_bias=0 / direct=3 / weightb=1 / open_gop=0 / weightp=2 / keyint=240 / keyint_min=24 / scenecut=40 / intra_refresh=0 / rc_lookahead=150 / rc=2pass / mbtree=1 / bitrate=1587 / ratetol=1.0 / qcomp=0.70 / qpmin=0 / qpmax=67 / qpstep=4 / cplxblur=20.0 / qblur=0.5 / vbv_maxrate=20000 / vbv_bufsize=20000 / nal_hrd=none / ip_ratio=1.35 / aq=1:0.90
Язык : English
Default : Да
Forced : Нет

Аудио
Идентификатор : 2
Формат : AC-3
Формат/Информация : Audio Coding 3
Расширение режима : CM (complete main)
Параметр Endianness формата : Big
Идентификатор кодека : A_AC3
Продолжительность : 1 ч. 42 м.
Вид битрейта : Постоянный
Битрейт : 448 Кбит/сек
Каналы : 6 каналов
Расположение каналов : Front: L C R, Side: L R, LFE
Частота : 48,0 КГц
Битовая глубина : 16 бит
Метод сжатия : С потерями
Задержка видео : 59 мс.
Размер потока : 329 Мбайт (22%)
Заголовок : Dub | DD 5.1 @ 448 kbps
Язык : Russian
Default : Да
Forced : Да

Текст #1
Идентификатор : 3
Формат : UTF-8
Идентификатор кодека : S_TEXT/UTF8
Идентификатор кодека/Информация : UTF-8 Plain Text
Язык : English
Default : Нет
Forced : Нет

Текст #2
Идентификатор : 4
Формат : UTF-8
Идентификатор кодека : S_TEXT/UTF8
Идентификатор кодека/Информация : UTF-8 Plain Text
Язык : Russian
Default : Нет
Forced : Нет
x264 [info]: frame I:1269 Avg QP:15.84 size: 66787
x264 [info]: frame P:30573 Avg QP:19.08 size: 20117
x264 [info]: frame B:116126 Avg QP:21.01 size: 4880
x264 [info]: consecutive B-frames: 1.7% 2.3% 6.2% 20.3% 17.4% 37.9% 6.6% 2.6% 2.0% 0.6% 0.5% 0.8% 0.4% 0.6%
x264 [info]: mb I I16..4: 21.6% 0.0% 78.4%
x264 [info]: mb P I16..4: 21.8% 0.0% 0.0% P16..4: 66.6% 0.0% 0.0% 0.0% 0.0% skip:11.6%
x264 [info]: mb B I16..4: 3.8% 0.0% 0.0% B16..8: 27.8% 0.0% 0.0% direct:18.0% skip:50.4% L0:29.8% L1:37.5% BI:32.6%
x264 [info]: final ratefactor: 18.70
x264 [info]: direct mvs spatial:99.8% temporal:0.2%
x264 [info]: coded y,uvDC,uvAC intra: 63.2% 63.2% 31.7% inter: 21.4% 19.2% 1.8%
x264 [info]: i16 v,h,dc,p: 35% 24% 26% 15%
x264 [info]: i4 v,h,dc,ddl,ddr,vr,hd,vl,hu: 23% 19% 16% 4% 10% 7% 7% 7% 9%
x264 [info]: i8c dc,h,v,p: 51% 20% 24% 5%
x264 [info]: Weighted P-Frames: Y:3.3% UV:1.6%
x264 [info]: kb/s:1643.40

загрузка...
Правила, инструкции, FAQ!!!
Торрент  Добавлен [09 май 2013, 12:19] Скачать торрент
Скачать торрент
[ Размер 15.14 КБ / Просмотров 4 ]

Статус  
 
Размер  1.46 ГБ
Приватный: Нет (DHT включён)
.torrent скачан  13
Как залить торрент? | Как скачать Torrent? | Как смотреть и слушать онлайн?  


     Отправить личное сообщение
   
Страница 1 из 1
Показать сообщения за:  Поле сортировки  
Начать новую тему Ответить на тему

   Похожие торренты   Автор   Ответы   Просмотры   Последнее сообщение 
В этой теме нет новых непрочитанных сообщений. Скачать торрент Проверен Доброе сердце / The Good Heart (2009) BDRip | Лицензия

в форуме Драмы, Мелодрамы, Размер: 1.45 ГБ, Здоровье: 100%

Anonymous

0
2|0

52
21

04 июл 2014, 17:49

Anonymous Перейти к последнему сообщению

В этой теме нет новых непрочитанных сообщений. Скачать торрент Хорошие вибрации / Good Vibrations (2012) BDRip 1080p | A

в форуме 720p | 1080p, Размер: 6.88 ГБ, Здоровье: 4%

Anonymous

0
1|21

56
6

20 мар 2014, 08:13

Anonymous Перейти к последнему сообщению

В этой теме нет новых непрочитанных сообщений. Скачать торрент Хорошие вибрации / Good Vibrations (2012) BDRip 720p | A

в форуме 720p | 1080p, Размер: 4.69 ГБ, Здоровье: 100%

Anonymous

0
2|0

30
27

20 мар 2014, 08:09

Anonymous Перейти к последнему сообщению

В этой теме нет новых непрочитанных сообщений. Скачать торрент 8 первых свиданий (2012) BDRip | Лицензия

в форуме Комедии, Размер: 1.45 ГБ, Здоровье: 100%

Anonymous

0
830|20

51
14543

06 янв 2014, 19:48

Anonymous Перейти к последнему сообщению

В этой теме нет новых непрочитанных сообщений. Скачать торрент Схватка / The Grey (2012) BDRip | Лицензия

в форуме Боевики, Размер: 1.45 ГБ, Здоровье: 100%

Anonymous

0
106|5

28
11

29 янв 2014, 20:20

Anonymous Перейти к последнему сообщению



Сейчас этот форум просматривают: нет зарегистрированных пользователей и гости: 1


Вы не можете начинать темы
Вы не можете отвечать на сообщения
Вы не можете редактировать свои сообщения
Вы не можете удалять свои сообщения
Вы не можете добавлять вложения

Перейти:  

!ВНИМАНИЕ!
 Ресурс не предоставляет электронные версии произведений, а занимается лишь коллекционированием и каталогизацией ссылок, присылаемых и публикуемых на форуме нашими читателями. Если вы являетесь правообладателем какого-либо представленного материала и не желаете чтобы ссылка на него находилась в нашем каталоге, свяжитесь с нами и мы незамедлительно удалим её. Файлы для обмена на трекере предоставлены пользователями сайта, и администрация не несёт ответственности за их содержание. Просьба не заливать файлы, защищенные авторскими правами, а также файлы нелегального содержания!