На всех торрентах на трекере установлена скидка на скачивание в размере 100 процентов(а).
 Возможность скачивания торрента НЕ зависит от ограничений при низком ратио, низком аплоаде, требуемом ратио или требуемом аплоаде.


Начать новую тему Ответить на тему
Статистика раздачи
Размер: 5.76 ГБ | Добавлен: 08 май 2013, 18:50 | Скачали: 0
Сидеров: 0  [0 байт/сек]    Личеров: 0  [0 байт/сек]
Пред. тема | След. тема 

Автор
Сообщение

СообщениеДобавлено: 08 май 2013, 18:50 

Название: Тьма
Оригинальное название: Darkness
Год выхода: 2002
Жанр: ужасы
Режиссер: Жауме Балагуэро

В фильме снимались: Анна Пэкуин, Лена Улин, Айэйн Глен, Джанкарло Джаннини, Феле Мартинес, Стефан Энквист, Ферми Рейксач, Франсеск Пахес, Крэйг Стивенсон, Паула Фернандез

Вкратце: Вернувшись в Испанию после долгого пребывания в Америке, семья юной Регины поселяется в старом величественном особняке, пустовавшем почти 40 лет. Вскоре ее младшему брату начинает казаться, что в холодных стенах их нового дома присутствует кто-то невидимый и страшный.

Пугающие, необъяснимые события и странное поведение отца семейства подсказывают детям, что их мрачная обитель хранит некую зловещую тайну. Близится солнечное затмение. Поставит ли тьма точку в их бесконечных кошмарах или навсегда погрузит их в бездну всепоглощающего ужаса?



Выпущено: Dimension Films
Продолжительность: 01:42:31
Перевод: Дублированный (лицензия)

Формат: mkv
Кодек: x264
Качество: BDRip (источник: Blu-ray Disc)
Видео: 1920x792 (2,40:1), 23.976 fps, 7149 kbps
Аудио #1: AC-3, 6 ch, 448 kbps (Rus)
Аудио #2: AC-3, 6 ch, 448 kbps (Eng)
Субтитры: Русские, Английские


Скриншоты

Общее
Уникальный идентификатор : 194320594095104135873720568069550647575 (0x9230C8FC2CD87DDCA15CDE21A8722917)
Полное имя : Darkness.2002.BDRip.1080p.Rus.Eng.mkv
Формат : Matroska
Версия формата : Version 2
Размер файла : 5,76 Гбайт
Продолжительность : 1 ч. 42 м.
Общий поток : 8045 Кбит/сек
Название фильма : Тьма / Darkness (2002)
Дата кодирования : UTC 2013-05-08 12:01:43
Программа кодирования : mkvmerge v5.8.0 ('No Sleep / Pillow') built on Sep 2 2012 15:37:04
Библиотека кодирования : libebml v1.2.3 + libmatroska v1.3.0

Видео
Идентификатор : 1
Формат : AVC
Формат/Информация : Advanced Video Codec
Профиль формата : High@L4.1
Параметр CABAC формата : Да
Параметр ReFrames формата : 5 кадров
Идентификатор кодека : V_MPEG4/ISO/AVC
Продолжительность : 1 ч. 42 м.
Битрейт : 7149 Кбит/сек
Ширина : 1920 пикселей
Высота : 792 пикселя
Соотношение сторон : 2,40:1
Частота кадров : 23,976 кадра/сек
Цветовое пространство : YUV
Субдискретизация насыщенности : 4:2:0
Битовая глубина : 8 бит
Тип развёртки : Прогрессивная
Бит/(Пиксели*Кадры) : 0.196
Размер потока : 5,00 Гбайт (87%)
Заголовок : Release by AlexKa
Библиотека кодирования : x264 core 132 r2310 76a5c3a
Настройки программы : cabac=1 / ref=5 / deblock=1:-3:-3 / analyse=0x3:0x133 / me=umh / subme=11 / psy=1 / psy_rd=1.00:0.00 / mixed_ref=1 / me_range=32 / chroma_me=1 / trellis=2 / 8x8dct=1 / cqm=0 / deadzone=21,11 / fast_pskip=0 / chroma_qp_offset=-2 / threads=12 / lookahead_threads=1 / sliced_threads=0 / nr=0 / decimate=0 / interlaced=0 / bluray_compat=0 / constrained_intra=0 / bframes=3 / b_pyramid=2 / b_adapt=2 / b_bias=0 / direct=3 / weightb=1 / open_gop=0 / weightp=2 / keyint=240 / keyint_min=23 / scenecut=40 / intra_refresh=0 / rc_lookahead=80 / rc=2pass / mbtree=1 / bitrate=7149 / ratetol=1.0 / qcomp=0.60 / qpmin=0 / qpmax=69 / qpstep=4 / cplxblur=20.0 / qblur=0.5 / ip_ratio=1.40 / aq=1:1.00
Язык : English

Аудио #1
Идентификатор : 2
Формат : AC-3
Формат/Информация : Audio Coding 3
Расширение режима : CM (complete main)
Идентификатор кодека : A_AC3
Продолжительность : 1 ч. 42 м.
Вид битрейта : Постоянный
Битрейт : 448 Кбит/сек
Каналы : 6 каналов
Расположение каналов : Front: L C R, Side: L R, LFE
Частота : 48,0 КГц
Битовая глубина : 16 бит
Метод сжатия : С потерями
Размер потока : 328 Мбайт (6%)
Заголовок : Rus
Язык : Russian

Аудио #2
Идентификатор : 3
Формат : AC-3
Формат/Информация : Audio Coding 3
Расширение режима : CM (complete main)
Идентификатор кодека : A_AC3
Продолжительность : 1 ч. 42 м.
Вид битрейта : Постоянный
Битрейт : 448 Кбит/сек
Каналы : 6 каналов
Расположение каналов : Front: L C R, Side: L R, LFE
Частота : 48,0 КГц
Битовая глубина : 16 бит
Метод сжатия : С потерями
Размер потока : 328 Мбайт (6%)
Заголовок : Eng
Язык : English

Текст #1
Идентификатор : 4
Формат : UTF-8
Идентификатор кодека : S_TEXT/UTF8
Идентификатор кодека/Информация : UTF-8 Plain Text
Заголовок : Rus
Язык : Russian

Текст #2
Идентификатор : 5
Формат : UTF-8
Идентификатор кодека : S_TEXT/UTF8
Идентификатор кодека/Информация : UTF-8 Plain Text
Заголовок : Eng
Язык : English

Меню
00:00:00.000 : :Chapter 01
00:09:37.660 : :Chapter 02
00:15:23.380 : :Chapter 03
00:23:41.878 : :Chapter 04
00:29:44.240 : :Chapter 05
00:36:59.508 : :Chapter 06
00:44:49.311 : :Chapter 07
00:48:13.891 : :Chapter 08
00:54:52.914 : :Chapter 09
01:02:26.200 : :Chapter 10
01:06:01.958 : :Chapter 11
01:12:12.953 : :Chapter 12
01:17:14.755 : :Chapter 13
01:25:38.758 : :Chapter 14
01:31:56.511 : :Chapter 15
x264 [info]: frame I:1298 Avg QP:14.00 size:114281
x264 [info]: frame P:43866 Avg QP:17.00 size: 52649
x264 [info]: frame B:102313 Avg QP:18.51 size: 29685
загрузка...
Правила, инструкции, FAQ!!!
Торрент  Добавлен [08 май 2013, 18:50] Скачать торрент
Скачать торрент
[ Размер 29.27 КБ / Просмотров 5 ]

Статус  
 
Размер  5.76 ГБ
Приватный: Нет (DHT включён)
.torrent скачан  0
Как залить торрент? | Как скачать Torrent? | Как смотреть и слушать онлайн?  


     Отправить личное сообщение
   
Страница 1 из 1
Показать сообщения за:  Поле сортировки  
Начать новую тему Ответить на тему

   Похожие торренты   Автор   Ответы   Просмотры   Последнее сообщение 
В этой теме нет новых непрочитанных сообщений. Скачать торрент И наступит тьма / And Soon the Darkness (Маркос Эфрон / Marcos Efron) [2010, триллер, BDRip-AVC]

в форуме 720p | 1080p, Размер: 1.74 ГБ, Здоровье: 100%

Anonymous

0
12|4

16
0

19 фев 2014, 11:43

Anonymous Перейти к последнему сообщению

В этой теме нет новых непрочитанных сообщений. Скачать торрент Проверен The International Bestseller - James Grippando / Джеймс Гриппандо - When Darkness Falls / Когда сгущается тьма [2009, FB2/RTF/PDF, RUS]

в форуме Детективы и Боевики, Размер: 3.28 МБ, Здоровье: 0%

Anonymous

0
0|0

1
0

08 сен 2016, 21:02

Anonymous Перейти к последнему сообщению

В этой теме нет новых непрочитанных сообщений. Скачать торрент Проверен Мистериум. Тьма в бутылке / Flaskepost fra P (2016) BDRip 720p | L

в форуме 720p | 1080p, Размер: 4.86 ГБ, Здоровье: 47%

Гость

0
29|61

221
20

26 авг 2016, 21:50

Гость Перейти к последнему сообщению

В этой теме нет новых непрочитанных сообщений. Скачать торрент Проверен Три икса / xXx (2002) BDRip 1080p

в форуме 720p | 1080p, Размер: 7.95 ГБ, Здоровье: 100%

Anonymous

0
58|7

27
22

08 апр 2015, 21:32

Anonymous Перейти к последнему сообщению

В этой теме нет новых непрочитанных сообщений. Скачать торрент Проверен Неверная / Unfaithful (2002) BDRip 1080p

в форуме 720p | 1080p, Размер: 7.75 ГБ, Здоровье: 68%

Anonymous

0
45|66

23
55

05 фев 2015, 17:58

Anonymous Перейти к последнему сообщению



Сейчас этот форум просматривают: нет зарегистрированных пользователей и гости: 2


Вы не можете начинать темы
Вы не можете отвечать на сообщения
Вы не можете редактировать свои сообщения
Вы не можете удалять свои сообщения
Вы не можете добавлять вложения

Перейти:  

!ВНИМАНИЕ!
 Ресурс не предоставляет электронные версии произведений, а занимается лишь коллекционированием и каталогизацией ссылок, присылаемых и публикуемых на форуме нашими читателями. Если вы являетесь правообладателем какого-либо представленного материала и не желаете чтобы ссылка на него находилась в нашем каталоге, свяжитесь с нами и мы незамедлительно удалим её. Файлы для обмена на трекере предоставлены пользователями сайта, и администрация не несёт ответственности за их содержание. Просьба не заливать файлы, защищенные авторскими правами, а также файлы нелегального содержания!