На всех торрентах на трекере установлена скидка на скачивание в размере 100 процентов(а).
 Возможность скачивания торрента НЕ зависит от ограничений при низком ратио, низком аплоаде, требуемом ратио или требуемом аплоаде.


Начать новую тему Ответить на тему
Статистика раздачи
Размер: 3.49 ГБ | Добавлен: 07 май 2013, 13:43 | Скачали: 0
Сидеров: 0  [0 байт/сек]    Личеров: 0  [0 байт/сек]
Пред. тема | След. тема 

Автор
Сообщение

СообщениеДобавлено: 07 май 2013, 13:43 

Название: Секс по алфавиту
Оригинальное название: Pigs
Год выпуска: 2007
Жанр: Комедия
Выпущено: Канада, Bad Monkey Productions, Hill's Production Services
Режиссер: Карл Ди Пелино

В фильме снимались: Джефферсон Браун, Даррин Лучио, Кристофер Эллиотт, Мелани Мэрден, Келли Каннингэм, Кэтрин Джейн Рейд, Тайрон Гринидж, Дерек Квиткович, Тед Нил, Хейди Райден, Лесли Феррейра, Сара Схеффер, Селия Роуэн, Е Мустафа, Крис Рагонетти, Хелен Ламонт, Мерл Ньюэлл, Синди К., Джеймс Хмель, Кевин Линг, Тревор Цибарз, Симона Смолл, Мишель Смарт, Эмидио ДиПьетро, Кэлвин Скидмор, Дэниэл Холмс, Эми МакНотон, Дороти Браун, Марк Клейборн, Макс Смит, Шэрон Тюфель, Джереми Стиффенс, Джейсон Лафонтейн, Джей Цибарз, Карл ДиПелино, Люка Эпт, Ким Аллан

Вкратце: Майлс — неоспоримый дамский угодник. Льстивый, изящный и красивый. Нет девчонки, которую бы он не смог соблазнить. Он заключает пари с лучшим другом, что уложит в постель всех девчонок колледжа в алфавитном порядке. И всё идёт хорошо до тех пор, пока Майлс не встречает Габриэллу. Она не поддаётся его чарам, а он влюбляется в неё. И что же теперь делать? Проиграть пари? Или выиграть, рассказав об этом Габриэлль, и при этом потерять её навсегда?

Качество: BDRip 720p
Размер: 3.49 ГБ
Продолжительность: 01:24:38

Видео: MPEG-4 AVC, 3643 Kбит/с, 1280x518
Аудио: русский, 48 kHz, AC3, 6 ch, 640 kbps avg [Профессиональный многоголосый]

Внешние файлы
Аудио: русский, 48 kHz, DTS, 6 ch, 768 kbps avg [Профессиональный многоголосый]
Аудио: английский, 48 kHz, DTS, 6 ch, 768 kbps avg [Оригинал]




---[NoImage] avs [info]: 1280x518p 1:1 @ 24/1 fps (cfr)
---[NoImage] x264 [warning]: --ssim used with psy on: results will be invalid!
---[NoImage] x264 [warning]: --tune ssim should be used if attempting to benchmark ssim!
---[NoImage] x264 [info]: using SAR=1/1
---[NoImage] x264 [info]: using cpu capabilities: MMX2 SSE2Fast SSSE3 SSE4.2
---[NoImage] x264 [info]: profile High, level 4.1
---[NoImage]
---[NoImage] x264 [info]: frame I:860 Avg QP:17.78 size: 89872
---[NoImage] x264 [info]: frame P:22984 Avg QP:18.61 size: 36114
---[NoImage] x264 [info]: frame B:97972 Avg QP:19.73 size: 14894
---[NoImage] x264 [info]: consecutive B-frames: 1.1% 1.2% 3.5% 18.7% 15.8% 30.7% 11.7% 9.8% 7.4%
---[NoImage] x264 [info]: mb I I16..4: 18.8% 66.5% 14.7%
---[NoImage] x264 [info]: mb P I16..4: 2.3% 16.4% 1.4% P16..4: 38.0% 23.6% 10.8% 0.0% 0.0% skip: 7.5%
---[NoImage] x264 [info]: mb B I16..4: 0.3% 2.5% 0.1% B16..8: 42.9% 9.2% 2.4% direct: 8.8% skip:33.8% L0:43.0% L1:48.1% BI: 8.8%
---[NoImage] x264 [info]: 8x8 transform intra:82.2% inter:66.7%
---[NoImage] x264 [info]: coded y,uvDC,uvAC intra: 89.2% 92.7% 76.7% inter: 31.0% 36.1% 8.8%
---[NoImage] x264 [info]: i16 v,h,dc,p: 35% 11% 17% 38%
---[NoImage] x264 [info]: i8 v,h,dc,ddl,ddr,vr,hd,vl,hu: 12% 7% 10% 9% 13% 12% 12% 11% 13%
---[NoImage] x264 [info]: i4 v,h,dc,ddl,ddr,vr,hd,vl,hu: 17% 11% 3% 8% 13% 13% 12% 10% 11%
---[NoImage] x264 [info]: i8c dc,h,v,p: 43% 20% 20% 17%
---[NoImage] x264 [info]: Weighted P-Frames: Y:6.8% UV:4.2%
---[NoImage] x264 [info]: ref P L0: 42.2% 10.7% 18.2% 7.4% 6.5% 4.8% 4.6% 2.7% 2.8% 0.2% 0.0%
---[NoImage] x264 [info]: ref B L0: 73.2% 11.0% 5.9% 3.3% 2.6% 2.2% 1.2% 0.4%
---[NoImage] x264 [info]: ref B L1: 92.0% 8.0%
---[NoImage] x264 [info]: SSIM Mean Y:0.9694186 (15.145db)
---[NoImage] x264 [info]: kb/s:3730.00
---[NoImage] encoded 121816 frames, 7.10 fps, 3730.00 kb/s
--[Information] Final statistics
---[Information] [07.05.2013 11:49:19] Constant Quality Mode: Quality 20 computed...
---[Information] [07.05.2013 11:49:19] Video Bitrate Obtained (approximate): 3731 kbit/s
--[Information] [07.05.2013 11:49:19] MediaInfo
---[Information] File: E:RipSeks.po.alfavitu.2007.x264.BDRipSeks.po.alfavitu.2007.x264.BDRip.720p.mkv
Общее
Полное имя : E:VideoSeks.po.alfavitu.2007.x264.BDRip.720pSeks.po.alfavitu.2007.MVO.rus.dts
Формат : DTS
Формат/Информация : Digital Theater Systems
Размер файла : 465 Мбайт
Продолжительность : 1 ч. 24 м.
Режим общего битрейта : Постоянный
Общий поток : 768 Кбит/сек

Аудио
Формат : DTS
Формат/Информация : Digital Theater Systems
Режим : 16
Параметр Endianness формата : Big
Продолжительность : 1 ч. 24 м.
Вид битрейта : Постоянный
Битрейт : 768 Кбит/сек
Каналы : 6 каналов
Расположение каналов : Front: L C R, Side: L R, LFE
Частота : 48,0 КГц
Битовая глубина : 24 бит
Метод сжатия : С потерями
Размер потока : 465 Мбайт

Общее
Полное имя : E:VideoSeks.po.alfavitu.2007.x264.BDRip.720pSeks.po.alfavitu.2007.Original.eng.dts
Формат : DTS
Формат/Информация : Digital Theater Systems
Размер файла : 465 Мбайт
Продолжительность : 1 ч. 24 м.
Режим общего битрейта : Постоянный
Общий поток : 768 Кбит/сек

Аудио
Формат : DTS
Формат/Информация : Digital Theater Systems
Режим : 16
Параметр Endianness формата : Big
Продолжительность : 1 ч. 24 м.
Вид битрейта : Постоянный
Битрейт : 768 Кбит/сек
Каналы : 6 каналов
Расположение каналов : Front: L C R, Side: L R, LFE
Частота : 48,0 КГц
Битовая глубина : 16 бит
Метод сжатия : С потерями
Размер потока : 465 Мбайт

Общее
Уникальный идентификатор : 178747791283131856218387778071661745909 (0x867992870181BFDF917F4BBE923D96F5)
Полное имя : E:VideoSeks.po.alfavitu.2007.x264.BDRip.720pSeks.po.alfavitu.2007.x264.BDRip.720p.mkv
Формат : Matroska
Версия формата : Version 4 / Version 2
Размер файла : 2,58 Гбайт
Продолжительность : 1 ч. 24 м.
Общий поток : 4370 Кбит/сек
Название фильма : Секс по алфавиту / Pigs / 2007 / BDRip -- STarankov
Дата кодирования : UTC 2010-02-22 21:41:31
Программа кодирования : mkvmerge v5.9.0 ('On The Loose') built on Dec 9 2012 15:37:01
Библиотека кодирования : libebml v1.3.0 + libmatroska v1.4.0

Видео
Идентификатор : 1
Формат : AVC
Формат/Информация : Advanced Video Codec
Профиль формата : High@L4.1
Параметр CABAC формата : Да
Параметр ReFrames формата : 9 кадров
Идентификатор кодека : V_MPEG4/ISO/AVC
Продолжительность : 1 ч. 24 м.
Битрейт : 3643 Кбит/сек
Ширина : 1280 пикселей
Высота : 518 пикселей
Соотношение сторон : 2,471
Режим частоты кадров : Постоянный
Частота кадров : 24,000 кадра/сек
Цветовое пространство : YUV
Субдискретизация насыщенности : 4:2:0
Битовая глубина : 8 бит
Тип развёртки : Прогрессивная
Бит/(Пиксели*Кадры) : 0.229
Размер потока : 2,15 Гбайт (83%)
Библиотека кодирования : x264 core 130 r2273 b3065e6
Настройки программы : cabac=1 / ref=9 / deblock=1:-1:-1 / analyse=0x3:0x113 / me=umh / subme=9 / psy=1 / psy_rd=1.00:0.15 / mixed_ref=1 / me_range=24 / chroma_me=1 / trellis=2 / 8x8dct=1 / cqm=0 / deadzone=21,11 / fast_pskip=1 / chroma_qp_offset=-3 / threads=6 / lookahead_threads=1 / sliced_threads=0 / nr=0 / decimate=1 / interlaced=0 / bluray_compat=0 / constrained_intra=0 / bframes=8 / b_pyramid=2 / b_adapt=2 / b_bias=0 / direct=1 / weightb=0 / open_gop=0 / weightp=2 / keyint=230 / keyint_min=23 / scenecut=40 / intra_refresh=0 / rc=crf / mbtree=0 / crf=20.0 / qcomp=0.60 / qpmin=0 / qpmax=69 / qpstep=4 / ip_ratio=1.40 / pb_ratio=1.30 / aq=1:1.00
Язык : English
Default : Да
Forced : Нет

Аудио
Идентификатор : 2
Формат : AC-3
Формат/Информация : Audio Coding 3
Расширение режима : CM (complete main)
Параметр Endianness формата : Big
Идентификатор кодека : A_AC3
Продолжительность : 1 ч. 24 м.
Вид битрейта : Постоянный
Битрейт : 640 Кбит/сек
Каналы : 6 каналов
Расположение каналов : Front: L C R, Side: L R, LFE
Частота : 48,0 КГц
Битовая глубина : 16 бит
Метод сжатия : С потерями
Размер потока : 387 Мбайт (15%)
Заголовок : MVO
Язык : Russian
Default : Да
Forced : Нет

загрузка...
Правила, инструкции, FAQ!!!
Торрент  Добавлен [07 май 2013, 13:43] Скачать торрент
Скачать торрент
[ Размер 18.07 КБ / Просмотров 7 ]

Статус  
 
Размер  3.49 ГБ
Приватный: Нет (DHT включён)
.torrent скачан  0
Как залить торрент? | Как скачать Torrent? | Как смотреть и слушать онлайн?  


     Отправить личное сообщение
   
Страница 1 из 1
Показать сообщения за:  Поле сортировки  
Начать новую тему Ответить на тему

   Похожие торренты   Автор   Ответы   Просмотры   Последнее сообщение 
В этой теме нет новых непрочитанных сообщений. Скачать торрент Люсия и секс / Lucía y el sexo (2001) BDRip 720p

в форуме 720p | 1080p, Размер: 4.76 ГБ, Здоровье: 100%

Anonymous

0
35|2

32
818

26 мар 2014, 22:10

Anonymous Перейти к последнему сообщению

В этой теме нет новых непрочитанных сообщений. Скачать торрент Проверен Больше чем секс / No Strings Attached (2010) BDRip 720p | D

в форуме 720p | 1080p, Размер: 3.99 ГБ, Здоровье: 100%

Гость

0
182|88

54
226

24 май 2015, 23:32

Гость Перейти к последнему сообщению

В этой теме нет новых непрочитанных сообщений. Скачать торрент Проверен Любовь, секс и Лос-Анджелес / Cavemen (2013) BDRip 720p | P

в форуме 720p | 1080p, Размер: 4.48 ГБ, Здоровье: 0%

Anonymous

0
0|0

28
0

20 май 2014, 21:19

Anonymous Перейти к последнему сообщению

В этой теме нет новых непрочитанных сообщений. Скачать торрент Любовь, секс и химия / Better Living Through Chemistry (2014) BDRip 720p | L1

в форуме 720p | 1080p, Размер: 4.38 ГБ, Здоровье: 0%

Anonymous

0
0|0

50
1

21 апр 2014, 17:36

Anonymous Перейти к последнему сообщению

В этой теме нет новых непрочитанных сообщений. Скачать торрент Проверен Секс по дружбе / Friends with Benefits (2011) BDRip 720p от HELLYWOOD | Лицензия

в форуме 720p | 1080p, Размер: 5.37 ГБ, Здоровье: 100%

Anonymous

0
51|10

95
55

06 июн 2014, 21:23

Anonymous Перейти к последнему сообщению



Сейчас этот форум просматривают: нет зарегистрированных пользователей и гости: 1


Вы не можете начинать темы
Вы не можете отвечать на сообщения
Вы не можете редактировать свои сообщения
Вы не можете удалять свои сообщения
Вы не можете добавлять вложения

Перейти:  

!ВНИМАНИЕ!
 Ресурс не предоставляет электронные версии произведений, а занимается лишь коллекционированием и каталогизацией ссылок, присылаемых и публикуемых на форуме нашими читателями. Если вы являетесь правообладателем какого-либо представленного материала и не желаете чтобы ссылка на него находилась в нашем каталоге, свяжитесь с нами и мы незамедлительно удалим её. Файлы для обмена на трекере предоставлены пользователями сайта, и администрация не несёт ответственности за их содержание. Просьба не заливать файлы, защищенные авторскими правами, а также файлы нелегального содержания!