На всех торрентах на трекере установлена скидка на скачивание в размере 100 процентов(а).
 Возможность скачивания торрента НЕ зависит от ограничений при низком ратио, низком аплоаде, требуемом ратио или требуемом аплоаде.


Начать новую тему Ответить на тему
Статистика раздачи
Размер: 3.76 ГБ | Добавлен: 06 май 2013, 20:53 | Скачали: 0
Сидеров: 0  [0 байт/сек]    Личеров: 0  [0 байт/сек]
Пред. тема | След. тема 

Автор
Сообщение

СообщениеДобавлено: 06 май 2013, 20:53 

Название: Красный Барон
Оригинальное название: Der rote Baron (The Red Baron)
Год выпуска: 2008
Жанр: Боевик, драма, мелодрама, приключения, военный, биография
Выпущено: Германия, Великобритания, Niama Film
Режиссер: Николай Мюллершён

В фильме снимались: Томас Коутник, Томас Ибл, Альберт Фрэнк, Маттиас Швайгхефер, Максим Мехмет, Ханно Коффлер, Тиль Швайгер, Ричард Крайчо, Джозеф Файнс, Стеффен Шредер, Лукаш Прикаски, Лина Хиди, Ондрей Волейник, Йири Воганка, Ивета Иржичкова, Власта Сваткова, Аксель Праль, Гитта Швайгхефер, Фолькер Брух, Брано Холисек, Юли Энгельбрехт, Ян Власак, Луиза Бер, Ирена Махова, Роберт Небренский, Ральф Мисске, Тино Мевес, Якоб Эрфтемейер, Йозеф Винкларж, Ладислав Фрей, Брайан Каспе, Денни Ратайский, Павел Мыслик, Вацлав Илек, Адам Мислик, Владислав Русек, Барбора Уйфалуси, Патрик Плесингер

Вкратце: Барон Манфред фон Рихтгофен является самым опасным и знаменитым пилотом военно-воздушных сил Германии в Первой мировой войне. Для него и его соратников воздушные бои являются спортивным состязанием, техническим вызовом и почётной обязанностью, несмотря на весь ужас войны. Но после того как он влюбился в медсестру Кейт, Манфред понимает, что он используется только как средство пропаганды. Выбирая между его ненавистью к войне и ответственностью за его отряд истребителей, фон Рихтгофен решается лететь снова…

Формат: mkv
Качество: BDRip 720р
Видео: MPEG-4 AVC, 3952 Kбит/с 1280x544
Аудио: Русский (AC3, 6 ch, 640 Кбит/с), английский (AC3, 6 ch, 384 Кбит/с)

Продолжительность: 01:45:54
Перевод: Профессиональный двухголосый
Субтитры: Русские





-[NoImage] avs [info]: 1280x544p 1:1 @ 24000/1001 fps (cfr)
-[NoImage] x264 [warning]: --ssim used with psy on: results will be invalid!
-[NoImage] x264 [warning]: --tune ssim should be used if attempting to benchmark ssim!
-[NoImage] x264 [info]: using SAR=1/1
-[NoImage] x264 [info]: using cpu capabilities: MMX2 SSE2Fast SSSE3 SSE4.2
-[NoImage] x264 [info]: profile High, level 4.1
-[NoImage]
-[NoImage] x264 [info]: frame I:1190 Avg QP:17.49 size: 98776
-[NoImage] x264 [info]: frame P:32461 Avg QP:18.69 size: 40934
-[NoImage] x264 [info]: frame B:118698 Avg QP:20.31 size: 14920
-[NoImage] x264 [info]: consecutive B-frames: 2.0% 2.4% 6.4% 25.9% 10.9% 35.9% 6.0% 4.7% 5.8%
-[NoImage] x264 [info]: mb I I16..4: 15.8% 67.1% 17.0%
-[NoImage] x264 [info]: mb P I16..4: 1.7% 15.9% 1.4% P16..4: 33.8% 25.6% 13.1% 0.0% 0.0% skip: 8.5%
-[NoImage] x264 [info]: mb B I16..4: 0.1% 1.3% 0.1% B16..8: 45.1% 12.7% 3.7% direct: 7.6% skip:29.3% L0:42.2% L1:46.7% BI:11.1%
-[NoImage] x264 [info]: 8x8 transform intra:81.7% inter:57.2%
-[NoImage] x264 [info]: coded y,uvDC,uvAC intra: 92.3% 80.1% 55.5% inter: 34.4% 28.7% 7.1%
-[NoImage] x264 [info]: i16 v,h,dc,p: 31% 9% 20% 41%
-[NoImage] x264 [info]: i8 v,h,dc,ddl,ddr,vr,hd,vl,hu: 8% 9% 11% 9% 13% 12% 13% 11% 13%
-[NoImage] x264 [info]: i4 v,h,dc,ddl,ddr,vr,hd,vl,hu: 9% 8% 4% 9% 16% 14% 15% 11% 13%
-[NoImage] x264 [info]: i8c dc,h,v,p: 44% 24% 16% 15%
-[NoImage] x264 [info]: Weighted P-Frames: Y:11.3% UV:6.4%
-[NoImage] x264 [info]: ref P L0: 44.9% 12.5% 18.7% 6.3% 5.9% 3.7% 3.6% 1.9% 2.2% 0.3% 0.0%
-[NoImage] x264 [info]: ref B L0: 72.3% 12.4% 6.0% 3.3% 2.5% 2.1% 1.1% 0.4%
-[NoImage] x264 [info]: ref B L1: 92.6% 7.4%
-[NoImage] x264 [info]: SSIM Mean Y:0.9746470 (15.960db)
-[NoImage] x264 [info]: kb/s:4050.65
-[NoImage] encoded 152349 frames, 5.57 fps, 4050.65 kb/s
--[Information] [06.05.2013 3:19:01] Standard error stream
--[Information] Final statistics
---[Information] [06.05.2013 3:19:05] Constant Quality Mode: Quality 19 computed...
---[Information] [06.05.2013 3:19:05] Video Bitrate Obtained (approximate): 4052 kbit/s
--[Information] [06.05.2013 3:19:05] MediaInfo
---[Information] File: E:RipKrasnyj.baron.2008.x264.BDRipKrasnyj.baron.2008.x264.BDRip.720p.mkv
Общее
Уникальный идентификатор : 253342482671033543967455204895339723886 (0xBE97FCC35F7A5361AE473D3F9FDA3C6E)
Полное имя : E:VideoKrasnyj.baron.2008.x264.BDRip.720p.mkv
Формат : Matroska
Версия формата : Version 4 / Version 2
Размер файла : 3,76 Гбайт
Продолжительность : 1 ч. 45 м.
Общий поток : 5077 Кбит/сек
Название фильма : Красный барон / Der Rote Baron (The Red Baron) / 2008 / BDRip -- STarankov
Дата кодирования : UTC 2010-02-22 21:41:31
Программа кодирования : mkvmerge v5.9.0 ('On The Loose') built on Dec 9 2012 15:37:01
Библиотека кодирования : libebml v1.3.0 + libmatroska v1.4.0

Видео
Идентификатор : 1
Формат : AVC
Формат/Информация : Advanced Video Codec
Профиль формата : High@L4.1
Параметр CABAC формата : Да
Параметр ReFrames формата : 9 кадров
Идентификатор кодека : V_MPEG4/ISO/AVC
Продолжительность : 1 ч. 45 м.
Битрейт : 3952 Кбит/сек
Ширина : 1280 пикселей
Высота : 544 пикселя
Соотношение сторон : 2,35:1
Режим частоты кадров : Постоянный
Частота кадров : 23,976 кадра/сек
Цветовое пространство : YUV
Субдискретизация насыщенности : 4:2:0
Битовая глубина : 8 бит
Тип развёртки : Прогрессивная
Бит/(Пиксели*Кадры) : 0.237
Размер потока : 2,92 Гбайт (78%)
Библиотека кодирования : x264 core 130 r2273 b3065e6
Настройки программы : cabac=1 / ref=9 / deblock=1:-1:-1 / analyse=0x3:0x113 / me=umh / subme=9 / psy=1 / psy_rd=1.00:0.15 / mixed_ref=1 / me_range=24 / chroma_me=1 / trellis=2 / 8x8dct=1 / cqm=0 / deadzone=21,11 / fast_pskip=1 / chroma_qp_offset=-3 / threads=6 / lookahead_threads=1 / sliced_threads=0 / nr=0 / decimate=1 / interlaced=0 / bluray_compat=0 / constrained_intra=0 / bframes=8 / b_pyramid=2 / b_adapt=2 / b_bias=0 / direct=1 / weightb=0 / open_gop=0 / weightp=2 / keyint=230 / keyint_min=23 / scenecut=40 / intra_refresh=0 / rc=crf / mbtree=0 / crf=19.0 / qcomp=0.60 / qpmin=0 / qpmax=69 / qpstep=4 / ip_ratio=1.40 / pb_ratio=1.30 / aq=1:1.00
Язык : English
Default : Да
Forced : Нет

Аудио #1
Идентификатор : 2
Формат : AC-3
Формат/Информация : Audio Coding 3
Расширение режима : CM (complete main)
Параметр Endianness формата : Big
Идентификатор кодека : A_AC3
Продолжительность : 1 ч. 45 м.
Вид битрейта : Постоянный
Битрейт : 640 Кбит/сек
Каналы : 6 каналов
Расположение каналов : Front: L C R, Side: L R, LFE
Частота : 48,0 КГц
Битовая глубина : 16 бит
Метод сжатия : С потерями
Размер потока : 485 Мбайт (13%)
Заголовок : DVO
Язык : Russian
Default : Да
Forced : Нет

Аудио #2
Идентификатор : 3
Формат : AC-3
Формат/Информация : Audio Coding 3
Расширение режима : CM (complete main)
Параметр Endianness формата : Big
Идентификатор кодека : A_AC3
Продолжительность : 1 ч. 45 м.
Вид битрейта : Постоянный
Битрейт : 384 Кбит/сек
Каналы : 6 каналов
Расположение каналов : Front: L C R, Side: L R, LFE
Частота : 48,0 КГц
Битовая глубина : 16 бит
Метод сжатия : С потерями
Размер потока : 291 Мбайт (8%)
Заголовок : Original
Язык : English
Default : Нет
Forced : Нет

Текст
Идентификатор : 4
Формат : UTF-8
Идентификатор кодека : S_TEXT/UTF8
Идентификатор кодека/Информация : UTF-8 Plain Text
Заголовок : русский
Язык : Russian
Default : Нет
Forced : Нет
загрузка...
Правила, инструкции, FAQ!!!
Торрент  Добавлен [06 май 2013, 20:53] Скачать торрент
Скачать торрент
[ Размер 19.2 КБ / Просмотров 6 ]

Статус  
 
Размер  3.76 ГБ
Приватный: Нет (DHT включён)
.torrent скачан  0
Как залить торрент? | Как скачать Torrent? | Как смотреть и слушать онлайн?  


     Отправить личное сообщение
   
Страница 1 из 1
Показать сообщения за:  Поле сортировки  
Начать новую тему Ответить на тему

   Похожие торренты   Автор   Ответы   Просмотры   Последнее сообщение 
В этой теме нет новых непрочитанных сообщений. Скачать торрент Красный барон / Der Rote Baron (2008) HDRip

в форуме Боевики, Размер: 1.45 ГБ, Здоровье: 0%

Anonymous

0
0|0

32
0

23 дек 2013, 19:51

Anonymous Перейти к последнему сообщению

В этой теме нет новых непрочитанных сообщений. Скачать торрент Проверен Барон Мюнхгаузен / Baron Munchhausen / Baron on the Cannonball (2012) BDRip 720p | D

в форуме Комедии, Размер: 6.45 ГБ, Здоровье: 0%

Anonymous

0
0|0

29
0

30 май 2014, 07:32

Anonymous Перейти к последнему сообщению

В этой теме нет новых непрочитанных сообщений. Скачать торрент Проверен (Progressive Rock, Alternative Rock) Baron Biza - Baron Biza - 2011, FLAC (tracks) (WEB), lossless

в форуме Progressive & Art-Rock, Размер: 399.07 МБ, Здоровье: 0%

Anonymous

0
0|0

1
0

29 авг 2016, 22:16

Anonymous Перейти к последнему сообщению

В этой теме нет новых непрочитанных сообщений. Скачать торрент Проверен [SACD-R][OF] Christy Baron - Retrospective - 2004 (Vocal)

в форуме DTS CD / SACD-R, Размер: 4.3 ГБ, Здоровье: 100%

Anonymous

0
16|3

29
2

02 июл 2016, 01:48

Anonymous Перейти к последнему сообщению

В этой теме нет новых непрочитанных сообщений. Скачать торрент Проверен [TR24][OF] Christy Baron - Take This Journey - 2002 (FLAC)

в форуме Hi-Res stereo (Джаз и Блюз), Размер: 1.06 ГБ, Здоровье: 100%

Anonymous

0
8|2

1
0

27 авг 2016, 15:10

Anonymous Перейти к последнему сообщению



Сейчас этот форум просматривают: нет зарегистрированных пользователей и гости: 3


Вы не можете начинать темы
Вы не можете отвечать на сообщения
Вы не можете редактировать свои сообщения
Вы не можете удалять свои сообщения
Вы не можете добавлять вложения

Перейти:  

!ВНИМАНИЕ!
 Ресурс не предоставляет электронные версии произведений, а занимается лишь коллекционированием и каталогизацией ссылок, присылаемых и публикуемых на форуме нашими читателями. Если вы являетесь правообладателем какого-либо представленного материала и не желаете чтобы ссылка на него находилась в нашем каталоге, свяжитесь с нами и мы незамедлительно удалим её. Файлы для обмена на трекере предоставлены пользователями сайта, и администрация не несёт ответственности за их содержание. Просьба не заливать файлы, защищенные авторскими правами, а также файлы нелегального содержания!