На всех торрентах на трекере установлена скидка на скачивание в размере 100 процентов(а).
 Возможность скачивания торрента НЕ зависит от ограничений при низком ратио, низком аплоаде, требуемом ратио или требуемом аплоаде.


Начать новую тему Ответить на тему
Статистика раздачи
Размер: 4.47 ГБ | Добавлен: 06 май 2013, 14:54 | Скачали: 0
Сидеров: 4  [0 байт/сек]    Личеров: 0  [0 байт/сек]
Пред. тема | След. тема 

Автор
Сообщение

СообщениеДобавлено: 06 май 2013, 14:54 

Название: Паркер
Оригинальное название: Parker
Год выхода: 2013
Жанр: триллер, криминал
Режиссер: Тейлор Хэкфорд

В ролях: Джейсон Стэйтем, Дженнифер Лопез, Майкл Чиклис, Уенделл Пирс, Клифтон Коллинз мл., Бобби Каннавале, Пэтти ЛюПон, Карлос Карраско, Мика А. Хауптман, Эмма Бут

О фильме:Главный герой — профессиональный вор, руководствующийся собственным моральным кодексом, но способный запросто отправить на тот свет любого, кто перейдет ему дорогу.



Страна: США
Продолжительность: 01:58:40
Озвучивание: Дублированное [Чистый звук]


Формат: MKV
Качество: BDRip 720p [EbP]
Видео: 4945 kb/s, 1280x530
Аудио: Russian AC3, 448 kb/s (6 ch), / English: AC3, 640 kb/s (6 ch) / AAC, 64 kb/s (2 ch) [Commentary]
Субтитры: English [Full, Forced, Commentary]




General
Unique ID : 243488434133770606957299707960651366061 (0xB72E2AA8FC5DE732B78CFF8E6C8F3EAD)
Complete name : Parker.2013.D.BDRip.720p.mkv
Format : Matroska
Format version : Version 2
File size : 4.47 GiB
Duration : 1h 58mn
Overall bit rate : 5 393 Kbps
Encoded date : UTC 2013-05-06 09:27:00
Writing application : mkvmerge v2.9.8 ('C'est le bon') built on Nov 20 2009 13:01:15
Writing library : libebml v0.7.9 + libmatroska v0.8.1

Video
ID : 1
Format : AVC
Format/Info : Advanced Video Codec
Format profile : High@L4.1
Format settings, CABAC : Yes
Format settings, ReFrames : 9 frames
Codec ID : V_MPEG4/ISO/AVC
Duration : 1h 58mn
Width : 1 280 pixels
Height : 530 pixels
Display aspect ratio : 2.40:1
Frame rate : 23.976 fps
Color space : YUV
Chroma subsampling : 4:2:0
Bit depth : 8 bits
Scan type : Progressive
Title : Parker.2013.720p.BluRay.x264-EbP
Writing library : x264 core 130 r2273 b3065e6
Encoding settings : cabac=1 / ref=9 / deblock=1:-3:-3 / analyse=0x3:0x133 / me=esa / subme=10 / psy=1 / psy_rd=1.10:0.00 / mixed_ref=1 / me_range=24 / chroma_me=1 / trellis=2 / 8x8dct=1 / cqm=0 / deadzone=21,11 / fast_pskip=0 / chroma_qp_offset=-2 / threads=18 / lookahead_threads=3 / sliced_threads=0 / nr=0 / decimate=0 / interlaced=0 / bluray_compat=0 / constrained_intra=0 / bframes=9 / b_pyramid=2 / b_adapt=2 / b_bias=0 / direct=3 / weightb=1 / open_gop=0 / weightp=2 / keyint=240 / keyint_min=23 / scenecut=40 / intra_refresh=0 / rc_lookahead=80 / rc=crf / mbtree=0 / crf=16.9 / qcomp=0.60 / qpmin=0 / qpmax=69 / qpstep=4 / vbv_maxrate=62500 / vbv_bufsize=78125 / crf_max=0.0 / nal_hrd=none / ip_ratio=1.40 / pb_ratio=1.30 / aq=2:0.80
Language : English
Default : No
Forced : No

Audio #1
ID : 2
Format : AC-3
Format/Info : Audio Coding 3
Mode extension : CM (complete main)
Format settings, Endianness : Big
Codec ID : A_AC3
Duration : 1h 58mn
Bit rate mode : Constant
Bit rate : 448 Kbps
Channel(s) : 6 channels
Channel positions : Front: L C R, Side: L R, LFE
Sampling rate : 48.0 KHz
Bit depth : 16 bits
Compression mode : Lossy
Stream size : 380 MiB (8%)
Language : Russian
Default : Yes
Forced : No

Audio #2
ID : 3
Format : AC-3
Format/Info : Audio Coding 3
Mode extension : CM (complete main)
Format settings, Endianness : Big
Codec ID : A_AC3
Duration : 1h 58mn
Bit rate mode : Constant
Bit rate : 640 Kbps
Channel(s) : 6 channels
Channel positions : Front: L C R, Side: L R, LFE
Sampling rate : 48.0 KHz
Bit depth : 16 bits
Compression mode : Lossy
Stream size : 543 MiB (12%)
Title : English DD5.1 @ 640 Kbps
Language : English
Default : No
Forced : No

Audio #3
ID : 4
Format : AAC
Format/Info : Advanced Audio Codec
Format profile : HE-AAC / LC
Codec ID : A_AAC
Duration : 1h 58mn
Channel(s) : 2 channels
Channel positions : Front: L R
Sampling rate : 48.0 KHz / 24.0 KHz
Compression mode : Lossy
Delay relative to video : 31ms
Title : Commentary AAC 2.0 @ 64 Kbps
Language : English
Default : No
Forced : No

Text #1
ID : 5
Format : UTF-8
Codec ID : S_TEXT/UTF8
Codec ID/Info : UTF-8 Plain Text
Title : English
Language : English
Default : No
Forced : No

Text #2
ID : 6
Format : UTF-8
Codec ID : S_TEXT/UTF8
Codec ID/Info : UTF-8 Plain Text
Title : English (SDH)
Language : English
Default : No
Forced : No

Text #3
ID : 7
Format : UTF-8
Codec ID : S_TEXT/UTF8
Codec ID/Info : UTF-8 Plain Text
Title : Commentary
Language : English
Default : No
Forced : No

Menu
00:00:00.000 : en:00:00:00.000
00:06:14.708 : en:00:06:14.708
00:14:00.923 : en:00:14:00.923
00:19:29.585 : en:00:19:29.585
00:26:25.000 : en:00:26:25.000
00:31:46.488 : en:00:31:46.488
00:38:26.804 : en:00:38:26.804
00:42:27.920 : en:00:42:27.920
00:49:46.275 : en:00:49:46.275
00:55:07.638 : en:00:55:07.638
01:01:11.376 : en:01:01:11.376
01:06:21.561 : en:01:06:21.561
01:11:51.349 : en:01:11:51.349
01:22:34.533 : en:01:22:34.533
01:30:46.274 : en:01:30:46.274
01:38:12.220 : en:01:38:12.220
загрузка...
Правила, инструкции, FAQ!!!
Торрент  Добавлен [06 май 2013, 14:54] Скачать торрент
Скачать торрент
[ Размер 11.66 КБ / Просмотров 8 ]

Статус  
 
Размер  4.47 ГБ
Приватный: Нет (DHT включён)
.torrent скачан  0
Как залить торрент? | Как скачать Torrent? | Как смотреть и слушать онлайн?  


     Отправить личное сообщение
   
Страница 1 из 1
Показать сообщения за:  Поле сортировки  
Начать новую тему Ответить на тему

   Похожие торренты   Автор   Ответы   Просмотры   Последнее сообщение 
В этой теме нет новых непрочитанных сообщений. Скачать торрент Проверен [iPad] Сердце Ангела / Angel heart (Алан Паркер / Alan Parker) [1987 г., Мистика, ужасы, триллер, BDRip 720p]

в форуме Фильмы для iPod, iPhone, iPad, Размер: 3.26 ГБ, Здоровье: 100%

Гость

0
12|4

41
0

18 май 2015, 10:49

Гость Перейти к последнему сообщению

В этой теме нет новых непрочитанных сообщений. Скачать торрент Олдбой / Oldboy (2013) BDRip 720p | Чистый звук

в форуме 720p | 1080p, Размер: 6.23 ГБ, Здоровье: 0%

Anonymous

0
0|0

25
0

12 фев 2014, 14:47

Anonymous Перейти к последнему сообщению

В этой теме нет новых непрочитанных сообщений. Скачать торрент Starперцы / Last Vegas (2013) BDRip 720p | Чистый звук

в форуме 720p | 1080p, Размер: 6.39 ГБ, Здоровье: 0%

Anonymous

0
0|0

31
0

17 фев 2014, 22:09

Anonymous Перейти к последнему сообщению

В этой теме нет новых непрочитанных сообщений. Скачать торрент Гонка / Rush (2013) BDRip 720p | Чистый звук

в форуме 720p | 1080p, Размер: 5.12 ГБ, Здоровье: 0%

Anonymous

0
0|0

22
0

10 янв 2014, 15:41

Anonymous Перейти к последнему сообщению

В этой теме нет новых непрочитанных сообщений. 47 ронинов / 47 Ronin (2013) BDRip 720p | Чистый звук

в форуме Новинки кино, Размер: 5.67 ГБ, Здоровье: 100%

Anonymous

0
337|1

127
4202

20 мар 2014, 20:12

Anonymous Перейти к последнему сообщению



Сейчас этот форум просматривают: нет зарегистрированных пользователей и гости: 1


Вы не можете начинать темы
Вы не можете отвечать на сообщения
Вы не можете редактировать свои сообщения
Вы не можете удалять свои сообщения
Вы не можете добавлять вложения

Перейти:  

!ВНИМАНИЕ!
 Ресурс не предоставляет электронные версии произведений, а занимается лишь коллекционированием и каталогизацией ссылок, присылаемых и публикуемых на форуме нашими читателями. Если вы являетесь правообладателем какого-либо представленного материала и не желаете чтобы ссылка на него находилась в нашем каталоге, свяжитесь с нами и мы незамедлительно удалим её. Файлы для обмена на трекере предоставлены пользователями сайта, и администрация не несёт ответственности за их содержание. Просьба не заливать файлы, защищенные авторскими правами, а также файлы нелегального содержания!