На всех торрентах на трекере установлена скидка на скачивание в размере 100 процентов(а).
 Возможность скачивания торрента НЕ зависит от ограничений при низком ратио, низком аплоаде, требуемом ратио или требуемом аплоаде.


Начать новую тему Ответить на тему
Статистика раздачи
Размер: 3.07 ГБ | Добавлен: 05 май 2013, 22:50 | Скачали: 1
Сидеров: 0  [0 байт/сек]    Личеров: 0  [0 байт/сек]
Пред. тема | След. тема 

Автор
Сообщение

СообщениеДобавлено: 05 май 2013, 22:50 

Название: Бешеные псы
Оригинальное название: Reservoir Dogs
Год выхода: 1992
Жанр: Триллер, криминал, детектив
Режиссер: Квентин Тарантино

В фильме снимались: Харви Кейтель, Тим Рот, Майкл Мэдсен, Крис Пенн, Стив Бушеми, Лоуренс Тирни, Эдвард Банкер, Квентин Тарантино, Рэнди Брукс, Кирк Балц

Вкратце:
Это должно было стать идеальным преступлением. Задумав ограбить ювелирный магазин, криминальный босс Джо Кэбот собрал вместе шестерых опытных и совершенно незнакомых друг с другом преступников. Но с самого начала все пошло не так, и обычный грабеж превратился в кровавую бойню.



Страна: США
Студия: Dog Eat Dog Productions Inc., Live Entertainment
Продолжительность: 01:39:17
Перевод: Профессиональный многоголосый, профессиональный двухголосый, авторский одноголосый

Формат: mkv
Кодек: x264
Качество: BDRip-AVC
Видео: MPEG-4 AVC, 1800 Кбит/с, 1024x438, 23.976 кадр/с
Звук:
1. Русский (AC3, 6 ch, 448 Кбит/с) / Профессиональный многоголосый
2. Русский (AC3, 6 ch, 384 Кбит/с) / Профессиональный двухголосый
3. Русский (AC3, 6 ch, 448 Кбит/с) / Авторский одноголосый (Дмитрий «Гоблин» Пучков) - присутствует ненормативная лексика
4. Русский (AC3, 6 ch, 448 Кбит/с) / Авторский одноголосый (А.Гаврилов)
5. Русский (AC3, 6 ch, 448 Кбит/с) / Авторский одноголосый (Ю.Живов)
6. Английский (AC3, 6 ch, 448 Кбит/с)
Субтитры: Русские, русские (по Гоблину)



General
Complete name : G:Мои раздачи(AVC)Бешеные псыBeshennye.psy.1992.x264.BDRip.(AVC)-vvmon.mkv
Format : Matroska
File size : 3.07 GiB
Duration : 1h 39mn
Overall bit rate : 4 427 Kbps
Movie name : Release by == vvmon ==
Encoded date : UTC 2013-05-05 19:13:30
Writing application : mkvmerge v4.5.0 ('Speed of Light') сборка от Feb 1 2011 02:10:32
Writing library : libebml v1.2.0 + libmatroska v1.1.0

Video
ID : 1
Format : AVC
Format/Info : Advanced Video Codec
Format profile : High@L4.1
Format settings, CABAC : Yes
Format settings, ReFrames : 8 frames
Muxing mode : Container profile=Unknown@4.1
Codec ID : V_MPEG4/ISO/AVC
Duration : 1h 39mn
Bit rate : 1 800 Kbps
Width : 1 024 pixels
Height : 438 pixels
Display aspect ratio : 2.35:1
Frame rate : 23.976 fps
Color space : YUV
Chroma subsampling : 4:2:0
Bit depth : 8 bits
Scan type : Progressive
Bits/(Pixel*Frame) : 0.167
Stream size : 1.19 GiB (39%)
Title : Beshennye.psy.1992.x264.BDRip.(AVC)-vvmon.mkv
Writing library : x264 core 119 r2106 07efeb4
Encoding settings : cabac=1 / ref=8 / deblock=1:-2:-2 / analyse=0x3:0x133 / me=umh / subme=11 / psy=1 / psy_rd=1.00:0.00 / mixed_ref=1 / me_range=48 / chroma_me=1 / trellis=2 / 8x8dct=1 / cqm=0 / deadzone=21,11 / fast_pskip=0 / chroma_qp_offset=-2 / threads=3 / sliced_threads=0 / nr=0 / decimate=1 / interlaced=0 / bluray_compat=0 / constrained_intra=0 / bframes=8 / b_pyramid=2 / b_adapt=2 / b_bias=0 / direct=3 / weightb=1 / open_gop=0 / weightp=2 / keyint=250 / keyint_min=23 / scenecut=40 / intra_refresh=0 / rc=2pass / mbtree=0 / bitrate=1800 / ratetol=1.0 / qcomp=0.60 / qpmin=10 / qpmax=51 / qpstep=4 / cplxblur=20.0 / qblur=0.5 / ip_ratio=1.40 / pb_ratio=1.30 / aq=2:1.00

Audio #1
ID : 2
Format : AC-3
Format/Info : Audio Coding 3
Mode extension : CM (complete main)
Codec ID : A_AC3
Duration : 1h 39mn
Bit rate mode : Constant
Bit rate : 448 Kbps
Channel(s) : 6 channels
Channel positions : Front: L C R, Side: L R, LFE
Sampling rate : 48.0 KHz
Bit depth : 16 bits
Stream size : 318 MiB (10%)
Title : Профессиональный многоголосый (Blu-ray)
Language : Russian

Audio #2
ID : 3
Format : AC-3
Format/Info : Audio Coding 3
Mode extension : CM (complete main)
Codec ID : A_AC3
Duration : 1h 39mn
Bit rate mode : Constant
Bit rate : 384 Kbps
Channel(s) : 6 channels
Channel positions : Front: L C R, Side: L R, LFE
Sampling rate : 48.0 KHz
Bit depth : 16 bits
Stream size : 273 MiB (9%)
Title : Профессиональный двухголосый
Language : Russian

Audio #3
ID : 4
Format : AC-3
Format/Info : Audio Coding 3
Mode extension : CM (complete main)
Codec ID : A_AC3
Duration : 1h 39mn
Bit rate mode : Constant
Bit rate : 448 Kbps
Channel(s) : 6 channels
Channel positions : Front: L C R, Side: L R, LFE
Sampling rate : 48.0 KHz
Bit depth : 16 bits
Stream size : 318 MiB (10%)
Title : Авторский одноголосый (Дмитрий «Гоблин» Пучков)
Language : Russian

Audio #4
ID : 5
Format : AC-3
Format/Info : Audio Coding 3
Mode extension : CM (complete main)
Codec ID : A_AC3
Duration : 1h 39mn
Bit rate mode : Constant
Bit rate : 448 Kbps
Channel(s) : 6 channels
Channel positions : Front: L C R, Side: L R, LFE
Sampling rate : 48.0 KHz
Bit depth : 16 bits
Stream size : 318 MiB (10%)
Title : Авторский одноголосый (А.Гаврилов)
Language : Russian

Audio #5
ID : 6
Format : AC-3
Format/Info : Audio Coding 3
Mode extension : CM (complete main)
Codec ID : A_AC3
Duration : 1h 39mn
Bit rate mode : Constant
Bit rate : 448 Kbps
Channel(s) : 6 channels
Channel positions : Front: L C R, Side: L R, LFE
Sampling rate : 48.0 KHz
Bit depth : 16 bits
Stream size : 318 MiB (10%)
Title : Авторский одноголосый (Ю.Живов)
Language : Russian

Audio #6
ID : 7
Format : AC-3
Format/Info : Audio Coding 3
Mode extension : CM (complete main)
Codec ID : A_AC3
Duration : 1h 39mn
Bit rate mode : Constant
Bit rate : 448 Kbps
Channel(s) : 6 channels
Channel positions : Front: L C R, Side: L R, LFE
Sampling rate : 48.0 KHz
Bit depth : 16 bits
Stream size : 318 MiB (10%)
Title : Английский

Text #1
ID : 8
Format : UTF-8
Codec ID : S_TEXT/UTF8
Codec ID/Info : UTF-8 Plain Text
Title : Русские (по Гоблину)
Language : Russian

Text #2
ID : 9
Format : UTF-8
Codec ID : S_TEXT/UTF8
Codec ID/Info : UTF-8 Plain Text
Title : Русские
Language : Russian

Menu
00:00:00.000 : en:Chapter 01
00:07:56.142 : en:Chapter 02
00:09:51.256 : en:Chapter 03
00:15:22.504 : en:Chapter 04
00:19:07.604 : en:Chapter 05
00:22:00.193 : en:Chapter 06
00:26:39.889 : en:Chapter 07
00:28:25.411 : en:Chapter 08
00:33:10.446 : en:Chapter 09
00:36:41.866 : en:Chapter 10
00:37:56.399 : en:Chapter 11
00:45:41.612 : en:Chapter 12
00:51:41.097 : en:Chapter 13
00:55:24.029 : en:Chapter 14
00:57:41.666 : en:Chapter 15
00:59:55.425 : en:Chapter 16
01:03:59.043 : en:Chapter 17
01:06:44.041 : en:Chapter 18
01:14:33.719 : en:Chapter 19
01:19:55.081 : en:Chapter 20
01:27:13.061 : en:Chapter 21
01:30:05.649 : en:Chapter 22
01:32:53.776 : en:Chapter 23
01:35:28.639 : en:Chapter 24




Релиз от:
загрузка...
Правила, инструкции, FAQ!!!
Торрент  Добавлен [05 май 2013, 22:50] Скачать торрент
Скачать торрент
[ Размер 15.89 КБ / Просмотров 4 ]

Статус  
 
Размер  3.07 ГБ
Приватный: Нет (DHT включён)
.torrent скачан  1
Как залить торрент? | Как скачать Torrent? | Как смотреть и слушать онлайн?  


     Отправить личное сообщение
   
Страница 1 из 1
Показать сообщения за:  Поле сортировки  
Начать новую тему Ответить на тему

   Похожие торренты   Автор   Ответы   Просмотры   Последнее сообщение 
В этой теме нет новых непрочитанных сообщений. Скачать торрент Проверен Бешеные / Enragés (2015) BDRip | iTunes

в форуме Боевики, Размер: 1.42 ГБ, Здоровье: 16%

Гость

0
20|123

237
3

04 авг 2016, 23:49

Гость Перейти к последнему сообщению

В этой теме нет новых непрочитанных сообщений. Скачать торрент Проверен Бешеные / Enragés (2015) BDRip 1080p | iTunes

в форуме 720p | 1080p, Размер: 6.8 ГБ, Здоровье: 100%

Anonymous

0
74|2

118
3

04 авг 2016, 23:53

Anonymous Перейти к последнему сообщению

В этой теме нет новых непрочитанных сообщений. Скачать торрент Проверен (Hard Rock/AOR) Bone Machine- Dogs - 1992, MP3 (tracks), 320 kbps

в форуме AOR (Melodic Hard Rock, Arena rock), Размер: 108.23 МБ, Здоровье: 0%

Anonymous

0
0|0

1
0

08 окт 2016, 00:46

Anonymous Перейти к последнему сообщению

В этой теме нет новых непрочитанных сообщений. Скачать торрент Соломенные псы / Straw Dogs (2011) BDRip-AVC | D, А

в форуме 720p | 1080p, Размер: 2.89 ГБ, Здоровье: 0%

Anonymous

0
0|0

17
0

29 янв 2014, 08:23

Anonymous Перейти к последнему сообщению

В этой теме нет новых непрочитанных сообщений. Скачать торрент Проверен (Progressive Metal) Tungsten - The Reservoir - 2014, MP3, 320 kbps

в форуме Heavy, Power, Progressive (Metal), Размер: 123.48 МБ, Здоровье: 0%

Anonymous

0
0|0

0
0

08 окт 2016, 14:02

Anonymous Перейти к последнему сообщению



Сейчас этот форум просматривают: нет зарегистрированных пользователей и гости: 2


Вы не можете начинать темы
Вы не можете отвечать на сообщения
Вы не можете редактировать свои сообщения
Вы не можете удалять свои сообщения
Вы не можете добавлять вложения

Перейти:  

!ВНИМАНИЕ!
 Ресурс не предоставляет электронные версии произведений, а занимается лишь коллекционированием и каталогизацией ссылок, присылаемых и публикуемых на форуме нашими читателями. Если вы являетесь правообладателем какого-либо представленного материала и не желаете чтобы ссылка на него находилась в нашем каталоге, свяжитесь с нами и мы незамедлительно удалим её. Файлы для обмена на трекере предоставлены пользователями сайта, и администрация не несёт ответственности за их содержание. Просьба не заливать файлы, защищенные авторскими правами, а также файлы нелегального содержания!