На всех торрентах на трекере установлена скидка на скачивание в размере 100 процентов(а).
 Возможность скачивания торрента НЕ зависит от ограничений при низком ратио, низком аплоаде, требуемом ратио или требуемом аплоаде.


Начать новую тему Ответить на тему
Статистика раздачи
Размер: 3.6 ГБ | Добавлен: 05 май 2013, 11:32 | Скачали: 9
Сидеров: 4  [0 байт/сек]    Личеров: 2  [0 байт/сек]
Пред. тема | След. тема 

Автор
Сообщение

СообщениеДобавлено: 05 май 2013, 11:32 

Название: Нелл
Оригинальное название: Nell
Год выхода: 1994
Жанр: Драма
Режиссер: Майкл Эптид / Michael Apted

В фильме снимались: Джоди Фостер /Jodie Foster/, Лиам Нисон /Liam Neeson/, Наташа Ричардсон /Natasha Richardson/, Ричард Либертини /Richard Libertini/, Ник Сирси /Nick Searcy/, Джереми Дэвис /Jeremy Davies/, О'Нил Комптон /O'Neal Compton/, Робин Маллинз /Robin Mullins/

Вкратце:
Доктор Джерри Ловелл глубоко в лесу находит хижину, в которой живет молодая женщина по имени Нелл. Она никогда не видела людей, кроме матери и сестры, она ничего не знает об окружающем мире и говорит на искаженном английском. Ловелл берет ее под свою опеку и в ответственный момент отправляется в суд, чтобы защитить от своих коллег, уверенных, что Нелл следует отправить в психиатрическую лечебницу... (дневкино.ру)



Страна: США
Студия: Egg Pictures, PolyGram Filmed Entertainment, Twentieth Century Fox Film Corporation
Продолжительность: 01:48:02
Перевод: Профессиональный (многоголосый, закадровый) НТВ+

Формат: mkv
Кодек: h.264
Качество: HDTVRip 720p
Видео: 1272x544 (2.35:1), 25.000 fps, AVC, ~4192 Kbps, 0.242 bits/pixel
Звук:
1) Английский, 48.0 KHz, AC3, 2 ch, 384 Kbps
2) Русский, 48.0 KHz, AC3, 2 ch, 192 Kbps

Субтитры: Английские, SRT(UTF-8)



Общее
Уникальный идентификатор : 206302202626100408876923852655184578694 (0x9B345BE500E09221BF091278A6440886)
Полное имя : D:FilmsNell.1994.HDTVRip720p.mkv
Формат : Matroska
Версия формата : Version 4 / Version 2
Размер файла : 3,60 Гбайт
Продолжительность : 1 ч. 48 м.
Общий поток : 4769 Кбит/сек
Дата кодирования : UTC 2013-05-05 07:25:41
Программа кодирования : mkvmerge v6.2.0 ('Promised Land') built on Apr 28 2013 12:22:01
Библиотека кодирования : libebml v1.3.0 + libmatroska v1.4.0

Видео
Идентификатор : 1
Формат : AVC
Формат/Информация : Advanced Video Codec
Профиль формата : High@L4.1
Параметр CABAC формата : Да
Параметр ReFrames формата : 9 кадров
Идентификатор кодека : V_MPEG4/ISO/AVC
Продолжительность : 1 ч. 48 м.
Битрейт : 4192 Кбит/сек
Ширина : 1272 пикселя
Высота : 544 пикселя
Соотношение сторон : 2,35:1
Режим частоты кадров : Постоянный
Частота кадров : 25,000 кадров/сек
Цветовое пространство : YUV
Субдискретизация насыщенности : 4:2:0
Битовая глубина : 8 бит
Тип развёртки : Прогрессивная
Бит/(Пиксели*Кадры) : 0.242
Размер потока : 3,09 Гбайт (86%)
Библиотека кодирования : x264 core 130 r2273 b3065e6
Настройки программы : cabac=1 / ref=9 / deblock=1:-3:-3 / analyse=0x3:0x133 / me=umh / subme=10 / psy=1 / psy_rd=1.10:0.10 / mixed_ref=1 / me_range=32 / chroma_me=1 / trellis=2 / 8x8dct=1 / cqm=0 / deadzone=21,11 / fast_pskip=0 / chroma_qp_offset=-3 / threads=8 / lookahead_threads=2 / sliced_threads=0 / nr=0 / decimate=0 / interlaced=0 / bluray_compat=0 / constrained_intra=0 / bframes=13 / b_pyramid=2 / b_adapt=2 / b_bias=0 / direct=3 / weightb=1 / open_gop=0 / weightp=2 / keyint=250 / keyint_min=25 / scenecut=40 / intra_refresh=0 / rc=2pass / mbtree=0 / bitrate=4192 / ratetol=1.0 / qcomp=0.60 / qpmin=0 / qpmax=60 / qpstep=4 / cplxblur=20.0 / qblur=0.5 / ip_ratio=1.40 / pb_ratio=1.30 / aq=2:1.00
Default : Нет
Forced : Нет
Основные цвета : BT.709
Характеристики трансфера : BT.709
Коэффициенты матрицы : BT.709

Аудио #1
Идентификатор : 2
Формат : AC-3
Формат/Информация : Audio Coding 3
Расширение режима : CM (complete main)
Параметр Endianness формата : Big
Идентификатор кодека : A_AC3
Продолжительность : 1 ч. 48 м.
Вид битрейта : Постоянный
Битрейт : 384 Кбит/сек
Каналы : 2 канала
Расположение каналов : Front: L R
Частота : 48,0 КГц
Битовая глубина : 16 бит
Метод сжатия : С потерями
Задержка видео : 85 мс.
Размер потока : 297 Мбайт (8%)
Язык : English
Default : Нет
Forced : Нет

Аудио #2
Идентификатор : 3
Формат : AC-3
Формат/Информация : Audio Coding 3
Расширение режима : CM (complete main)
Параметр Endianness формата : Big
Идентификатор кодека : A_AC3
Продолжительность : 1 ч. 48 м.
Вид битрейта : Постоянный
Битрейт : 192 Кбит/сек
Каналы : 2 канала
Расположение каналов : Front: L R
Частота : 48,0 КГц
Битовая глубина : 16 бит
Метод сжатия : С потерями
Задержка видео : 85 мс.
Размер потока : 148 Мбайт (4%)
Язык : Russian
Default : Да
Forced : Нет

Текст
Идентификатор : 4
Формат : UTF-8
Идентификатор кодека : S_TEXT/UTF8
Идентификатор кодека/Информация : UTF-8 Plain Text
Язык : English
Default : Нет
Forced : Нет


frame I:1024 Avg QP:14.96 size: 95792
frame P:41320 Avg QP:17.94 size: 38747
frame B:119698 Avg QP:19.74 size: 14175


Исходник - HDTV 1080i MGM UK + синхронизированы дорожка НТВ+ и англ. субтитры.




Релиз от: Temperest
загрузка...
Правила, инструкции, FAQ!!!
Торрент  Добавлен [05 май 2013, 11:32] Скачать торрент
Скачать торрент
[ Размер 18.51 КБ / Просмотров 13 ]

Статус  
 
Размер  3.6 ГБ
Приватный: Нет (DHT включён)
.torrent скачан  9
Как залить торрент? | Как скачать Torrent? | Как смотреть и слушать онлайн?  


     Отправить личное сообщение
   
Страница 1 из 1
Показать сообщения за:  Поле сортировки  
Начать новую тему Ответить на тему

   Похожие торренты   Автор   Ответы   Просмотры   Последнее сообщение 
В этой теме нет новых непрочитанных сообщений. Скачать торрент Проверен МакSим - Полная дискография и видеография (2006-2015) FLAC, MP3, HDTVRip, HDTVRip 720p, HDTVRip 1080p

в форуме Дискографии (Отечественные), Размер: 24.2 ГБ, Здоровье: 100%

Гость

0
271|150

297
23

20 дек 2015, 12:22

Гость Перейти к последнему сообщению

В этой теме нет новых непрочитанных сообщений. Скачать торрент Проверен Нелл Уайт-Смит | Лис, который раскрашивал зори [сборник] (2015) [FB2]

в форуме Фантастика, фэнтези, Размер: 832.36 КБ, Здоровье: 100%

Anonymous

0
7|1

29
1

22 ноя 2015, 15:11

Anonymous Перейти к последнему сообщению

В этой теме нет новых непрочитанных сообщений. Скачать торрент Проверен Linkin Park - Rock in Rio 2012 HDTVRip 720p [2012, Alternative - Rock, HDTVRip 720p]

в форуме Концерты (HD-Video), Размер: 4.47 ГБ, Здоровье: 100%

Anonymous

0
1|0

3
0

23 окт 2016, 11:09

Anonymous Перейти к последнему сообщению

В этой теме нет новых непрочитанных сообщений. Скачать торрент (MP4|1024х544) Отнесенные необыкновенной судьбой в Лазурное море в августе / Travolti da un insolito destino nell'azzurro mare d'agosto (1974) DVDRip

в форуме Видео для смартфонов и КПК, Размер: 1.35 ГБ, Здоровье: 0%

Anonymous

0
0|0

40
1

21 апр 2014, 22:26

Anonymous Перейти к последнему сообщению

В этой теме нет новых непрочитанных сообщений. Скачать торрент Проверен The Bangles - Dancing with the Stars (2011-10-17) HDTVRip 720p [2011, Rock/Pop, HDTVRip]

в форуме Концерты (HD-Video), Размер: 291.66 МБ, Здоровье: 100%

Anonymous

0
1|0

3
0

23 окт 2016, 13:17

Anonymous Перейти к последнему сообщению



Сейчас этот форум просматривают: нет зарегистрированных пользователей и гости: 1


Вы не можете начинать темы
Вы не можете отвечать на сообщения
Вы не можете редактировать свои сообщения
Вы не можете удалять свои сообщения
Вы не можете добавлять вложения

Перейти:  

!ВНИМАНИЕ!
 Ресурс не предоставляет электронные версии произведений, а занимается лишь коллекционированием и каталогизацией ссылок, присылаемых и публикуемых на форуме нашими читателями. Если вы являетесь правообладателем какого-либо представленного материала и не желаете чтобы ссылка на него находилась в нашем каталоге, свяжитесь с нами и мы незамедлительно удалим её. Файлы для обмена на трекере предоставлены пользователями сайта, и администрация не несёт ответственности за их содержание. Просьба не заливать файлы, защищенные авторскими правами, а также файлы нелегального содержания!