На всех торрентах на трекере установлена скидка на скачивание в размере 100 процентов(а).
 Возможность скачивания торрента НЕ зависит от ограничений при низком ратио, низком аплоаде, требуемом ратио или требуемом аплоаде.


Начать новую тему Ответить на тему
Статистика раздачи
Размер: 11.51 ГБ | Добавлен: 03 май 2013, 15:36 | Скачали: 0
Сидеров: 0  [0 байт/сек]    Личеров: 0  [0 байт/сек]
Пред. тема | След. тема 

Автор
Сообщение

СообщениеДобавлено: 03 май 2013, 15:36 

Название: Танцующий с волками
Оригинальное название: Dances with Wolves
Год выхода: 1990
Жанр: драма, приключения, вестерн
Режиссер: Кевин Костнер

В фильме снимались: Кевин Костнер, Мэри МакДоннелл, Грэм Грин, Родни А. Грант, Флойд «Ред Кроу» Уэстермен, Танту Кардинал, Роберт Пасторелли, Чарльз Роккет, Мори Чайкин, Джимми Херман

Вкратце: Действие фильма происходит в 19-м веке, во время гражданской войны в США. Данбар оказывается в заброшенном форте в штате Дакота, где сначала заводит дружбу с волками, а затем и с индейцами, изучает их культуру и обычаи. Он влюбляется в девушку, правда, белую. Но вот приближается регулярная армия, и Данбару приходится делать решающий выбор.



Выпущено: Tig Productions
Продолжительность: 03:53:49
Перевод: Профессиональный (многоголосый, закадровый) [Позитив-Мультимедиа]

Формат: mkv
Кодек: x264
Качество: BDRip (источник: Blu-ray Disc)
Видео: 1920x812 (2,35:1), 23.976 fps, 6150 kbps
Аудио #1: AC-3, 6 ch, 448 kbps (Rus)
Аудио #2: AC-3, 6 ch, 448 kbps (Eng)
Субтитры: Русские, Английские



Общее
Уникальный идентификатор : 235617431534493118402565904719766446765 (0xB142444537E913BD87279F805C2D62AD)
Полное имя : Dances.with.Wolves.1990.BDRip.1080p.Rus.Eng.mkv
Формат : Matroska
Версия формата : Version 2
Размер файла : 11,5 Гбайт
Продолжительность : 3 ч. 53 м.
Общий поток : 7045 Кбит/сек
Название фильма : Танцующий с волками / Dances with Wolves (1990) | 20th Anniversary Edition
Дата кодирования : UTC 2013-05-02 12:20:19
Программа кодирования : mkvmerge v5.8.0 ('No Sleep / Pillow') built on Sep 2 2012 15:37:04
Библиотека кодирования : libebml v1.2.3 + libmatroska v1.3.0

Видео
Идентификатор : 1
Формат : AVC
Формат/Информация : Advanced Video Codec
Профиль формата : High@L4.1
Параметр CABAC формата : Да
Параметр ReFrames формата : 5 кадров
Идентификатор кодека : V_MPEG4/ISO/AVC
Продолжительность : 3 ч. 53 м.
Битрейт : 6150 Кбит/сек
Ширина : 1920 пикселей
Высота : 812 пикселей
Соотношение сторон : 2,35:1
Частота кадров : 23,976 кадра/сек
Цветовое пространство : YUV
Субдискретизация насыщенности : 4:2:0
Битовая глубина : 8 бит
Тип развёртки : Прогрессивная
Бит/(Пиксели*Кадры) : 0.165
Размер потока : 9,81 Гбайт (85%)
Заголовок : Release by AlexKa
Библиотека кодирования : x264 core 132 r2309 3b1f1f7
Настройки программы : cabac=1 / ref=5 / deblock=1:-3:-3 / analyse=0x3:0x133 / me=umh / subme=10 / psy=1 / psy_rd=1.00:0.10 / mixed_ref=1 / me_range=32 / chroma_me=1 / trellis=2 / 8x8dct=1 / cqm=0 / deadzone=21,11 / fast_pskip=0 / chroma_qp_offset=-3 / threads=12 / lookahead_threads=1 / sliced_threads=0 / nr=0 / decimate=1 / interlaced=0 / bluray_compat=0 / constrained_intra=0 / bframes=6 / b_pyramid=2 / b_adapt=2 / b_bias=0 / direct=3 / weightb=1 / open_gop=0 / weightp=2 / keyint=240 / keyint_min=23 / scenecut=40 / intra_refresh=0 / rc_lookahead=80 / rc=2pass / mbtree=1 / bitrate=6150 / ratetol=1.0 / qcomp=0.60 / qpmin=0 / qpmax=69 / qpstep=4 / cplxblur=20.0 / qblur=0.5 / ip_ratio=1.40 / aq=1:0.80
Язык : English

Аудио #1
Идентификатор : 2
Формат : AC-3
Формат/Информация : Audio Coding 3
Расширение режима : CM (complete main)
Идентификатор кодека : A_AC3
Продолжительность : 3 ч. 53 м.
Вид битрейта : Постоянный
Битрейт : 448 Кбит/сек
Каналы : 6 каналов
Расположение каналов : Front: L C R, Side: L R, LFE
Частота : 48,0 КГц
Битовая глубина : 16 бит
Метод сжатия : С потерями
Размер потока : 749 Мбайт (6%)
Заголовок : Rus
Язык : Russian

Аудио #2
Идентификатор : 3
Формат : AC-3
Формат/Информация : Audio Coding 3
Расширение режима : CM (complete main)
Идентификатор кодека : A_AC3
Продолжительность : 3 ч. 53 м.
Вид битрейта : Постоянный
Битрейт : 448 Кбит/сек
Каналы : 6 каналов
Расположение каналов : Front: L C R, Side: L R, LFE
Частота : 48,0 КГц
Битовая глубина : 16 бит
Метод сжатия : С потерями
Размер потока : 749 Мбайт (6%)
Заголовок : Eng
Язык : English

Текст #1
Идентификатор : 4
Формат : UTF-8
Идентификатор кодека : S_TEXT/UTF8
Идентификатор кодека/Информация : UTF-8 Plain Text
Заголовок : Rus forced
Язык : Russian

Текст #2
Идентификатор : 5
Формат : UTF-8
Идентификатор кодека : S_TEXT/UTF8
Идентификатор кодека/Информация : UTF-8 Plain Text
Заголовок : Rus
Язык : Russian

Текст #3
Идентификатор : 6
Формат : UTF-8
Идентификатор кодека : S_TEXT/UTF8
Идентификатор кодека/Информация : UTF-8 Plain Text
Заголовок : Eng forced
Язык : English

Текст #4
Идентификатор : 7
Формат : UTF-8
Идентификатор кодека : S_TEXT/UTF8
Идентификатор кодека/Информация : UTF-8 Plain Text
Заголовок : Eng
Язык : English

Меню
00:00:00.000 : en:Main Title/No Gangrene
00:05:01.049 : en:Suicide Mission
00:11:46.664 : en:A Fool's Errand
00:20:19.760 : en:The Foulest Man Alive
00:26:41.349 : en:"This Is My Post"
00:36:10.168 : en:Clean-Up Duty
00:42:19.620 : en:Killing the Messenger
00:47:22.381 : en:A Friend in Two Socks
00:52:50.625 : en:The Naked Soldier
00:56:54.035 : en:What About the White Man?
01:03:57.208 : en:Little Big Horse Thieves
01:09:49.350 : en:Death of a Husband
01:11:47.594 : en:"She's Hurt!"
01:19:58.960 : en:Lost in the Translation
01:25:33.753 : en:Remember the White Words
01:32:32.921 : en:Official Introductions
01:41:53.064 : en:Who Killed the Buffalo?
01:53:44.234 : en:The Deep Divide
01:56:17.261 : en:A Successful Hunt
02:04:32.047 : en:"Good Trade"
02:13:04.226 : en:Wolf Dancing
02:18:54.117 : en:A Great Honor
02:27:34.845 : en:The Story of the Fist
02:38:09.104 : en:"I Am in Mourning"
02:42:20.814 : en:A Call to Arms
02:53:02.330 : en:Permission to Love
03:03:59.695 : en:The Most Important Trail
03:13:15.709 : en:"Turned Injun, Didn'cha?"
03:20:56.043 : en:Traitor Status
03:27:34.066 : en:Wolves and Other Animals
03:35:37.341 : en:Parting Gifts
03:48:25.316 : en:Epilogue/Credits
загрузка...
Правила, инструкции, FAQ!!!
Торрент  Добавлен [03 май 2013, 15:36] Скачать торрент
Скачать торрент
[ Размер 58.01 КБ / Просмотров 4 ]

Статус  
 
Размер  11.51 ГБ
Приватный: Нет (DHT включён)
.torrent скачан  0
Как залить торрент? | Как скачать Torrent? | Как смотреть и слушать онлайн?  


     Отправить личное сообщение
   
Страница 1 из 1
Показать сообщения за:  Поле сортировки  
Начать новую тему Ответить на тему

   Похожие торренты   Автор   Ответы   Просмотры   Последнее сообщение 
В этой теме нет новых непрочитанных сообщений. Скачать торрент Проверен Танцующий с волками / Dances with Wolves (1990) HDRip | Режиссерская версия

в форуме Вестерн, Размер: 1.46 ГБ, Здоровье: 100%

Гость

0
85|45

67
0

15 янв 2016, 22:27

Гость Перейти к последнему сообщению

В этой теме нет новых непрочитанных сообщений. Скачать торрент Проверен Бестселлеры Голливуда - Michael Blake / Майкл Блейк - Dances with Wolves / Танцы с волками [1994, FB2/PDF/DOC, RUS]

в форуме Зарубежная литература (XX и XXI век), Размер: 3.06 МБ, Здоровье: 100%

Anonymous

0
2|1

2
0

08 сен 2016, 20:00

Anonymous Перейти к последнему сообщению

В этой теме нет новых непрочитанных сообщений. Скачать торрент John Barry - Dances With Wolves 1990(2000 Remaster)[DSD 5.1, 2.0 1bit/2822,4kHz |SACD-R]<Soundtrack>

в форуме DTS CD / SACD-R, Размер: 2.46 ГБ, Здоровье: 100%

Anonymous

0
11|4

63
8

19 мар 2014, 09:58

Anonymous Перейти к последнему сообщению

В этой теме нет новых непрочитанных сообщений. Скачать торрент Проверен (Rock, Blues-rock) Derek And The Dominos - The Layla Sessions 20th Anniversary Edition - 1990, FLAC (tracks+.cue), lossless

в форуме Blues (Texas, Chicago, Modern and Others), Размер: 1.29 ГБ, Здоровье: 0%

Anonymous

0
0|0

0
0

16 окт 2016, 14:32

Anonymous Перейти к последнему сообщению

В этой теме нет новых непрочитанных сообщений. Скачать торрент Проверен Angra • Angels Cry • 20th Anniversary Tour [2013, Rock, Heavy Metal, Progressive Metal, BDRip 1080p]

в форуме Концерты (HD-Video), Размер: 8.74 ГБ, Здоровье: 100%

Anonymous

0
1|0

5
0

23 окт 2016, 13:46

Anonymous Перейти к последнему сообщению



Сейчас этот форум просматривают: нет зарегистрированных пользователей и гости: 4


Вы не можете начинать темы
Вы не можете отвечать на сообщения
Вы не можете редактировать свои сообщения
Вы не можете удалять свои сообщения
Вы не можете добавлять вложения

Перейти:  

!ВНИМАНИЕ!
 Ресурс не предоставляет электронные версии произведений, а занимается лишь коллекционированием и каталогизацией ссылок, присылаемых и публикуемых на форуме нашими читателями. Если вы являетесь правообладателем какого-либо представленного материала и не желаете чтобы ссылка на него находилась в нашем каталоге, свяжитесь с нами и мы незамедлительно удалим её. Файлы для обмена на трекере предоставлены пользователями сайта, и администрация не несёт ответственности за их содержание. Просьба не заливать файлы, защищенные авторскими правами, а также файлы нелегального содержания!