На всех торрентах на трекере установлена скидка на скачивание в размере 100 процентов(а).
 Возможность скачивания торрента НЕ зависит от ограничений при низком ратио, низком аплоаде, требуемом ратио или требуемом аплоаде.


Начать новую тему Ответить на тему
Статистика раздачи
Размер: 2.18 ГБ | Добавлен: 03 май 2013, 14:50 | Скачали: 1
Сидеров: 0  [0 байт/сек]    Личеров: 0  [0 байт/сек]
Пред. тема | След. тема 

Автор
Сообщение

СообщениеДобавлено: 03 май 2013, 14:50 

Название: Часы отчаяния
Оригинальное название: Desperate Hours
Год выхода: 1990
Жанр: триллер, драма, криминал, ремейк
Режиссер: Майкл Чимино

В фильме снимались: Микки Рурк, Энтони Хопкинс, Мими Роджерс, Линдси Краус, Келли Линч, Элиас Котеас, Дэвид Морс, Шоуни Смит, Дэнни Герард, Джерри Бэммен, Мэтт МакГрат, Джон Кристофер Джонс, Дин Норрис, Джон Финн, Кристофер Карри, Стэнли Уайт, Питер Кромби, Эллен Паркер, Элизабет Руссо, Кеннет Басс, Майк Нассбаум, Эллен МакЭлдафф, Бриттни Льюис, Лизе Уилбурн, Рон Бёрд, Алексис Фернандез

Вкратце:
Психологический триллер, ремейк фильма Уильяма Уайлера (1955 год). В основу обоих фильмов положен роман Джозефа Хэйеса (Joseph Hayes), ранее поставленный на Бродвейской сцене. Фильм рассказывает о наглом психопате Босуэрте, сбежавшем из тюрьмы при помощи страстно влюбленной в него адвокатши. Бандит и его сообщнии решают спрятаться в самом обычном доме. Пребывание преступной троицы в "гостях" превратилось в кошмар для его мирных обитателей...



Страна: США
Студия: Dino De Laurentiis Company
Продолжительность: 01:40:27
Перевод: Профессиональный многоголосый, авторский одноголосый закадровые

Формат: mkv
Кодек: Н264
Качество: HDTVRip-AVC
Видео: MPEG-4 AVC, 2341 Кбит/с, 1024x552, 25.000 кадр/с
Звук:
• №1: Русский (AC3, 2 ch, 192 Кбит/с) Профессиональный многоголосый
• №2: Русский (AC3, 2 ch, 192 Кбит/с) Профессиональный многоголосый
• №3: Русский (AC3, 2 ch, 192 Кбит/с) Авторский одноголосый (Андрей Гаврилов)
• №4: Английский (AC3, 2 ch, 192 Кбит/с)
Субтитры:




Полное имя : D:Chasy.otchajanija.1990.x264.HDTVRip.(AVC).Marvel.mkv
Формат : Matroska
Версия формата : Version 1
Размер файла : 2,18 Гбайт
Продолжительность : 1 ч. 40 м.
Общий поток : 3113 Кбит/сек
Название фильма : Desperate Hours (1990) -=Marvel=-
Дата кодирования : UTC 2013-05-03 08:28:59
Программа кодирования : mkvmerge v2.1.0 ('Another Place To Fall') built on Aug 19 2007 13:40:07
Библиотека кодирования : libebml v0.7.7 + libmatroska v0.8.1

Видео
Идентификатор : 1
Формат : AVC
Формат/Информация : Advanced Video Codec
Профиль формата : High@L4.1
Параметр CABAC формата : Да
Параметр ReFrames формата : 7 кадров
Идентификатор кодека : V_MPEG4/ISO/AVC
Продолжительность : 1 ч. 40 м.
Битрейт : 2341 Кбит/сек
Ширина : 1024 пикселя
Высота : 552 пикселя
Соотношение сторон : 1,85:1
Частота кадров : 25,000 кадров/сек
Цветовое пространство : YUV
Субдискретизация насыщенности : 4:2:0
Битовая глубина : 8 бит
Тип развёртки : Прогрессивная
Бит/(Пиксели*Кадры) : 0.166
Размер потока : 1,60 Гбайт (73%)
Заголовок : Desperate Hours (1990)
Библиотека кодирования : x264 core 92 r1510 33d382a
Настройки программы : cabac=1 / ref=7 / deblock=1:-3:-3 / analyse=0x3:0x133 / me=umh / subme=10 / psy=1 / psy_rd=1.00:0.10 / mixed_ref=1 / me_range=64 / chroma_me=1 / trellis=2 / 8x8dct=1 / cqm=0 / deadzone=21,11 / fast_pskip=0 / chroma_qp_offset=-3 / threads=1 / sliced_threads=0 / nr=0 / decimate=1 / interlaced=0 / constrained_intra=0 / bframes=3 / b_pyramid=2 / b_adapt=2 / b_bias=0 / direct=3 / wpredb=1 / wpredp=2 / keyint=250 / keyint_min=25 / scenecut=40 / intra_refresh=0 / rc_lookahead=50 / rc=2pass / mbtree=1 / bitrate=2341 / ratetol=1.0 / qcomp=0.60 / qpmin=10 / qpmax=51 / qpstep=4 / cplxblur=20.0 / qblur=0.5 / ip_ratio=1.40 / aq=1:1.00
Язык : English
Default : Да
Forced : Нет

Аудио #1
Идентификатор : 2
Формат : AC-3
Формат/Информация : Audio Coding 3
Расширение режима : CM (complete main)
Параметр Endianness формата : Big
Идентификатор кодека : A_AC3
Продолжительность : 1 ч. 40 м.
Вид битрейта : Постоянный
Битрейт : 192 Кбит/сек
Каналы : 2 канала
Расположение каналов : Front: L R
Частота : 48,0 КГц
Битовая глубина : 16 бит
Метод сжатия : С потерями
Размер потока : 138 Мбайт (6%)
Заголовок : MVO 1
Язык : Russian
Default : Да
Forced : Нет

Аудио #2
Идентификатор : 3
Формат : AC-3
Формат/Информация : Audio Coding 3
Расширение режима : CM (complete main)
Параметр Endianness формата : Big
Идентификатор кодека : A_AC3
Продолжительность : 1 ч. 40 м.
Вид битрейта : Постоянный
Битрейт : 192 Кбит/сек
Каналы : 2 канала
Расположение каналов : Front: L R
Частота : 48,0 КГц
Битовая глубина : 16 бит
Метод сжатия : С потерями
Размер потока : 138 Мбайт (6%)
Заголовок : MVO 2
Язык : Russian
Default : Нет
Forced : Нет

Аудио #3
Идентификатор : 4
Формат : AC-3
Формат/Информация : Audio Coding 3
Расширение режима : CM (complete main)
Параметр Endianness формата : Big
Идентификатор кодека : A_AC3
Продолжительность : 1 ч. 40 м.
Вид битрейта : Постоянный
Битрейт : 192 Кбит/сек
Каналы : 2 канала
Расположение каналов : Front: L R
Частота : 48,0 КГц
Битовая глубина : 16 бит
Метод сжатия : С потерями
Размер потока : 138 Мбайт (6%)
Заголовок : AVO (Gavrilov)
Язык : Russian
Default : Нет
Forced : Нет

Аудио #4
Идентификатор : 5
Формат : AC-3
Формат/Информация : Audio Coding 3
Расширение режима : CM (complete main)
Параметр Endianness формата : Big
Идентификатор кодека : A_AC3
Продолжительность : 1 ч. 40 м.
Вид битрейта : Постоянный
Битрейт : 192 Кбит/сек
Каналы : 2 канала
Расположение каналов : Front: L R
Частота : 48,0 КГц
Битовая глубина : 16 бит
Метод сжатия : С потерями
Размер потока : 138 Мбайт (6%)
Заголовок : Original
Язык : English
Default : Нет
Forced : Нет

Релиз от: Marvel
загрузка...
Правила, инструкции, FAQ!!!
Торрент  Добавлен [03 май 2013, 14:50] Скачать торрент
Скачать торрент
[ Размер 11.51 КБ / Просмотров 8 ]

Статус  
 
Размер  2.18 ГБ
Приватный: Нет (DHT включён)
.torrent скачан  1
Как залить торрент? | Как скачать Torrent? | Как смотреть и слушать онлайн?  


     Отправить личное сообщение
   
Страница 1 из 1
Показать сообщения за:  Поле сортировки  
Начать новую тему Ответить на тему

   Похожие торренты   Автор   Ответы   Просмотры   Последнее сообщение 
В этой теме нет новых непрочитанных сообщений. Скачать торрент Проверен (Traditional/Heavy Metal) Marvel - Marvel - 1990, MP3, 320 kbps

в форуме Heavy, Power, Progressive (Metal), Размер: 90.39 МБ, Здоровье: 0%

Anonymous

0
0|0

0
0

09 окт 2016, 12:43

Anonymous Перейти к последнему сообщению

В этой теме нет новых непрочитанных сообщений. Скачать торрент Проверен Последние часы / These Final Hours (2013) HDRip | L1

в форуме Фантастика, Фэнтези, Размер: 1.45 ГБ, Здоровье: 100%

Anonymous

0
1059|43

97
153

02 янв 2015, 15:38

Anonymous Перейти к последнему сообщению

В этой теме нет новых непрочитанных сообщений. Скачать торрент Проверен Последние часы / These Final Hours (2013) BDRip 1080p | L1

в форуме 720p | 1080p, Размер: 7.39 ГБ, Здоровье: 100%

Гость

0
403|339

38
484

19 дек 2014, 22:02

Гость Перейти к последнему сообщению

В этой теме нет новых непрочитанных сообщений. Скачать торрент Проверен Отчаянный побег / Desperate Escape (2009) HDTVRip | P

в форуме Драмы, Мелодрамы, Размер: 1.37 ГБ, Здоровье: 100%

Anonymous

0
124|48

49
390

30 мар 2015, 18:21

Anonymous Перейти к последнему сообщению

В этой теме нет новых непрочитанных сообщений. Скачать торрент Проверен (Hard Rock) Nasty Habit - Desperate Times, Desperate Measures [EP] - 2014, MP3, 320 kbps

в форуме Classic Rock & Hard Rock, Размер: 44.65 МБ, Здоровье: 0%

Anonymous

0
0|0

1
0

13 ноя 2016, 13:27

Anonymous Перейти к последнему сообщению



Сейчас этот форум просматривают: нет зарегистрированных пользователей и гости: 2


Вы не можете начинать темы
Вы не можете отвечать на сообщения
Вы не можете редактировать свои сообщения
Вы не можете удалять свои сообщения
Вы не можете добавлять вложения

Перейти:  

!ВНИМАНИЕ!
 Ресурс не предоставляет электронные версии произведений, а занимается лишь коллекционированием и каталогизацией ссылок, присылаемых и публикуемых на форуме нашими читателями. Если вы являетесь правообладателем какого-либо представленного материала и не желаете чтобы ссылка на него находилась в нашем каталоге, свяжитесь с нами и мы незамедлительно удалим её. Файлы для обмена на трекере предоставлены пользователями сайта, и администрация не несёт ответственности за их содержание. Просьба не заливать файлы, защищенные авторскими правами, а также файлы нелегального содержания!