На всех торрентах на трекере установлена скидка на скачивание в размере 100 процентов(а).
 Возможность скачивания торрента НЕ зависит от ограничений при низком ратио, низком аплоаде, требуемом ратио или требуемом аплоаде.


Начать новую тему Ответить на тему
Статистика раздачи
Размер: 2.06 ГБ | Добавлен: 01 май 2013, 14:25 | Скачали: 0
Сидеров: 0  [0 байт/сек]    Личеров: 0  [0 байт/сек]
Пред. тема | След. тема 

Автор
Сообщение

СообщениеДобавлено: 01 май 2013, 14:25 

Год выпуска: 2013
Производство: Великобритания / StudioCanal, Anton Capital Entertainment (ACE), Starcrossed Films
Жанр: Комедия, мелодрама
Продолжительность: 01:33:26
Перевод: Профессиональный (полное дублирование) лицензия


Режиссер: Дэн Мазер

В фильме снимались: Минни Драйвер, Роуз Бирн, Рейф Сполл, Анна Фэрис, Саймон Бэйкер, Стивен Мерчант, Джейсон Флеминг, Сенем Темиз, Оливия Колман, Анна Скеллерн

Вкратце: Фильм в комедийном ключе поведает о всевозможных проблемах и трудностях, с которыми приходится сталкиваться молодоженам в первый год их семейной жизни.


Бюджет: $6 000 000





Качество: DVDRip-AVC [Daju god 2013 D DVD IRONCLUB]
Формат: MKV
Видео: H.264, 720x436@1024x436 (2.35:1), 25,000 fps, 2254 Кbps, 0.287 bit/pixel
Аудио#1: 48 kHz, AC3 Dolby Digital, 3/2 (L,C,R,l,r) + LFE ch, ~448.00 kbps avg | RUS
Аудио#2: 48 kHz, AC3 Dolby Digital, 3/2 (L,C,R,l,r) + LFE ch, ~448.00 kbps avg | ENG


Автор рипа:



Общее
Уникальный идентификатор : 228652993294928677729381371103424034517 (0xAC04F6F45AA66EF1A7023D91341436D5)
Полное имя : Daju.God.2013.D.DVDRip.x264.potroks.mkv
Формат : Matroska
Версия формата : Version 4 / Version 2
Размер файла : 2,06 Гбайт
Продолжительность : 1 ч. 33 м.
Общий поток : 3152 Кбит/сек
Название фильма : -=POTROKS=-
Дата кодирования : UTC 2013-05-01 06:45:31
Программа кодирования : mkvmerge v5.9.0 ('On The Loose') built on Dec 15 2012 16:39:58
Библиотека кодирования : libebml v1.3.0 + libmatroska v1.4.0

Видео
Идентификатор : 1
Формат : AVC
Формат/Информация : Advanced Video Codec
Профиль формата : High@L4.1
Параметр CABAC формата : Да
Параметр ReFrames формата : 10 кадров
Идентификатор кодека : V_MPEG4/ISO/AVC
Продолжительность : 1 ч. 33 м.
Битрейт : 2254 Кбит/сек
Ширина : 720 пикселей
Высота : 436 пикселей
Соотношение сторон : 2,35:1
Режим частоты кадров : Постоянный
Частота кадров : 25,000 кадров/сек
Цветовое пространство : YUV
Субдискретизация насыщенности : 4:2:0
Битовая глубина : 8 бит
Тип развёртки : Прогрессивная
Бит/(Пиксели*Кадры) : 0.287
Размер потока : 1,43 Гбайт (70%)
Заголовок : I Give It a Year
Библиотека кодирования : x264 core 125 r2208 d9d2288
Настройки программы : cabac=1 / ref=10 / deblock=1:-1:-1 / analyse=0x3:0x133 / me=umh / subme=11 / psy=1 / psy_rd=1.14:0.02 / mixed_ref=1 / me_range=32 / chroma_me=1 / trellis=2 / 8x8dct=1 / cqm=0 / deadzone=21,11 / fast_pskip=0 / chroma_qp_offset=-3 / threads=9 / lookahead_threads=1 / sliced_threads=0 / nr=0 / decimate=1 / interlaced=0 / bluray_compat=0 / constrained_intra=0 / bframes=11 / b_pyramid=2 / b_adapt=2 / b_bias=0 / direct=3 / weightb=1 / open_gop=0 / weightp=2 / keyint=250 / keyint_min=25 / scenecut=40 / intra_refresh=0 / rc_lookahead=150 / rc=2pass / mbtree=1 / bitrate=2254 / ratetol=1.0 / qcomp=0.70 / qpmin=0 / qpmax=69 / qpstep=4 / cplxblur=20.0 / qblur=0.5 / vbv_maxrate=20000 / vbv_bufsize=20000 / nal_hrd=none / ip_ratio=1.35 / aq=1:0.70
Язык : English
Default : Да
Forced : Нет

Аудио #1
Идентификатор : 2
Формат : AC-3
Формат/Информация : Audio Coding 3
Расширение режима : CM (complete main)
Параметр Endianness формата : Big
Идентификатор кодека : A_AC3
Продолжительность : 1 ч. 33 м.
Вид битрейта : Постоянный
Битрейт : 448 Кбит/сек
Каналы : 6 каналов
Расположение каналов : Front: L C R, Side: L R, LFE
Частота : 48,0 КГц
Битовая глубина : 16 бит
Метод сжатия : С потерями
Размер потока : 299 Мбайт (14%)
Заголовок : Dub | DD 5.1 @ 448 kbps
Язык : Russian
Default : Да
Forced : Да

Аудио #2
Идентификатор : 3
Формат : AC-3
Формат/Информация : Audio Coding 3
Расширение режима : CM (complete main)
Параметр Endianness формата : Big
Идентификатор кодека : A_AC3
Продолжительность : 1 ч. 33 м.
Вид битрейта : Постоянный
Битрейт : 448 Кбит/сек
Каналы : 6 каналов
Расположение каналов : Front: L C R, Side: L R, LFE
Частота : 48,0 КГц
Битовая глубина : 16 бит
Метод сжатия : С потерями
Размер потока : 299 Мбайт (14%)
Заголовок : Original | DD 5.1 @ 448 kbps
Язык : English
Default : Нет
Forced : Нет
avs [info]: 720x436p 64:45 @ 25/1 fps (cfr)
x264 [info]: using SAR=64/45
x264 [info]: using cpu capabilities: MMX2 SSE2Fast SSSE3 FastShuffle SSE4.2 AVX XOP FMA4 SSEMisalign LZCNT
x264 [info]: profile High, level 4.1
x264 [info]: frame I:1510 Avg QP:15.30 size: 52866
x264 [info]: frame P:29153 Avg QP:16.09 size: 25767
x264 [info]: frame B:109491 Avg QP:19.41 size: 6833
x264 [info]: consecutive B-frames: 2.7% 1.6% 6.8% 14.9% 12.3% 52.7% 5.1% 1.8% 1.0% 0.3% 0.1% 0.7%
x264 [info]: mb I I16..4: 7.6% 68.9% 23.5%
x264 [info]: mb P I16..4: 1.4% 11.3% 2.8% P16..4: 26.0% 30.9% 15.8% 3.0% 0.4% skip: 8.4%
x264 [info]: mb B I16..4: 0.4% 1.5% 0.4% B16..8: 30.8% 20.5% 3.6% direct: 8.3% skip:34.6% L0:38.3% L1:36.3% BI:25.5%
x264 [info]: 8x8 transform intra:70.3% inter:60.1%
x264 [info]: direct mvs spatial:97.7% temporal:2.3%
x264 [info]: coded y,uvDC,uvAC intra: 79.5% 89.7% 73.6% inter: 28.1% 33.2% 13.8%
x264 [info]: i16 v,h,dc,p: 65% 7% 4% 24%
x264 [info]: i8 v,h,dc,ddl,ddr,vr,hd,vl,hu: 24% 9% 11% 7% 8% 12% 7% 13% 10%
x264 [info]: i4 v,h,dc,ddl,ddr,vr,hd,vl,hu: 45% 6% 7% 5% 7% 10% 6% 8% 6%
x264 [info]: i8c dc,h,v,p: 36% 17% 31% 16%
x264 [info]: Weighted P-Frames: Y:3.7% UV:1.5%
x264 [info]: ref P L0: 41.2% 8.8% 20.4% 7.2% 7.1% 3.9% 4.3% 2.3% 2.5% 1.9% 0.3% 0.0%
x264 [info]: ref B L0: 78.7% 10.7% 3.9% 2.3% 1.5% 1.3% 1.0% 0.5% 0.2%
x264 [info]: ref B L1: 95.2% 4.8%
x264 [info]: kb/s:2253.45

x264 [total]: encoded 140154 frames, 11.61 fps, 2253.45 kb/s


загрузка...
Правила, инструкции, FAQ!!!
Торрент  Добавлен [01 май 2013, 14:25] Скачать торрент
Скачать торрент
[ Размер 10.8 КБ / Просмотров 6 ]

Статус  
 
Размер  2.06 ГБ
Приватный: Нет (DHT включён)
.torrent скачан  0
Как залить торрент? | Как скачать Torrent? | Как смотреть и слушать онлайн?  


     Отправить личное сообщение
   
Страница 1 из 1
Показать сообщения за:  Поле сортировки  
Начать новую тему Ответить на тему

   Похожие торренты   Автор   Ответы   Просмотры   Последнее сообщение 
В этой теме нет новых непрочитанных сообщений. Скачать торрент Короли танцпола / Battle of the Year (2013) BDRip 1080p от Ash61 | 3D-Video | halfOU | Лицензия

в форуме HD-Video в 3D, Размер: 9.63 ГБ, Здоровье: 100%

Anonymous

0
19|1

87
932

02 апр 2014, 00:03

Anonymous Перейти к последнему сообщению

В этой теме нет новых непрочитанных сообщений. Скачать торрент Всё включено 2 (2013) DVDRip | Лицензия

в форуме Комедии, Размер: 1.46 ГБ, Здоровье: 100%

Anonymous

0
59|2

37
108

05 дек 2013, 21:59

Anonymous Перейти к последнему сообщению

В этой теме нет новых непрочитанных сообщений. Скачать торрент Ёлки 3 (2013) DVDRip | Лицензия

в форуме Комедии, Размер: 1.37 ГБ, Здоровье: 100%

Anonymous

0
674|0

97
2

18 янв 2014, 07:12

Anonymous Перейти к последнему сообщению

В этой теме нет новых непрочитанных сообщений. Скачать торрент Вот это любовь! (2013) DVDRip | Лицензия

в форуме Комедии, Размер: 1.37 ГБ, Здоровье: 100%

Anonymous

0
51|3

39
112

20 янв 2014, 19:35

Anonymous Перейти к последнему сообщению

В этой теме нет новых непрочитанных сообщений. Скачать торрент Бомба [01-08 из 08] (2013) DVDRip | лицензия

в форуме Отечественные сериалы, Размер: 4.74 ГБ, Здоровье: 25%

Anonymous

0
1|4

51
1

19 дек 2013, 23:39

Anonymous Перейти к последнему сообщению



Сейчас этот форум просматривают: нет зарегистрированных пользователей и гости: 3


Вы не можете начинать темы
Вы не можете отвечать на сообщения
Вы не можете редактировать свои сообщения
Вы не можете удалять свои сообщения
Вы не можете добавлять вложения

Перейти:  

!ВНИМАНИЕ!
 Ресурс не предоставляет электронные версии произведений, а занимается лишь коллекционированием и каталогизацией ссылок, присылаемых и публикуемых на форуме нашими читателями. Если вы являетесь правообладателем какого-либо представленного материала и не желаете чтобы ссылка на него находилась в нашем каталоге, свяжитесь с нами и мы незамедлительно удалим её. Файлы для обмена на трекере предоставлены пользователями сайта, и администрация не несёт ответственности за их содержание. Просьба не заливать файлы, защищенные авторскими правами, а также файлы нелегального содержания!