На всех торрентах на трекере установлена скидка на скачивание в размере 100 процентов(а).
 Возможность скачивания торрента НЕ зависит от ограничений при низком ратио, низком аплоаде, требуемом ратио или требуемом аплоаде.


Начать новую тему Ответить на тему
Статистика раздачи
Размер: 2.19 ГБ | Добавлен: 28 апр 2013, 13:51 | Скачали: 45
Сидеров: 58  [0 байт/сек]    Личеров: 16  [0 байт/сек]
Пред. тема | След. тема 

Автор
Сообщение

СообщениеДобавлено: 28 апр 2013, 13:51 

Год выпуска: 2010
Производство: США / Olive Bridge Entertainment, Screen Gems
Жанр: Мелодрама, комедия
Продолжительность: 01:32:24
Перевод: Профессиональный (полное дублирование)
Субтитры: Английские, русские


Режиссер: Уилл Глак

В фильме снимались: Эмма Стоун, Пенн Бэджли, Аманда Байнс, Дэн Берд, Томас Хейден Черч, Патришия Кларксон, Стэнли Туччи, Кэм Жиганде, Лиза Кудроу, Малкольм МакДауэлл, Элисон Мичалка

Вкратце: Главная героиня — девушка Олив, над которой насмехаются из-за пущенного слуха о потере ею невинности в школе с пуританскими нравами. Но она превращает этот слух в достоинство и сразу становится популярной, заметно пошатнув школьные устои.


Бюджет: $8 000 000





Качество: BDRip-AVC [Blu-Ray CEE]
Формат: MKV
Видео: H.264, 1032x558 (1,85:1), 23,976 fps, 2491 Кbps, 0.180 bit/pixel
Аудио#1: 48 kHz, AC3 Dolby Digital, 3/2 (L,C,R,l,r) + LFE ch, ~448.00 kbps avg | RUS
Аудио#2: 48 kHz, AC3 Dolby Digital, 3/2 (L,C,R,l,r) + LFE ch, ~448.00 kbps avg | ENG




Общее
Уникальный идентификатор : 176659147034335292031825254435291306433 (0x84E7506A523CD96583E2C049CB7699C1)
Полное имя : Otlichnitca.Ljogkogo.Povedeniya.2010.D.BDRip.x264.potroks.mkv
Формат : Matroska
Версия формата : Version 2
Размер файла : 2,19 Гбайт
Продолжительность : 1 ч. 32 м.
Общий поток : 3390 Кбит/сек
Название фильма : -=POTROKS=-
Дата кодирования : UTC 2013-04-28 09:20:03
Программа кодирования : mkvmerge v5.9.0 ('On The Loose') built on Dec 15 2012 16:39:58
Библиотека кодирования : libebml v1.3.0 + libmatroska v1.4.0

Видео
Идентификатор : 1
Формат : AVC
Формат/Информация : Advanced Video Codec
Профиль формата : High@L4.1
Параметр CABAC формата : Да
Параметр ReFrames формата : 11 кадров
Идентификатор кодека : V_MPEG4/ISO/AVC
Продолжительность : 1 ч. 32 м.
Битрейт : 2491 Кбит/сек
Ширина : 1032 пикселя
Высота : 558 пикселей
Соотношение сторон : 1,85:1
Режим частоты кадров : Постоянный
Частота кадров : 23,976 кадра/сек
Цветовое пространство : YUV
Субдискретизация насыщенности : 4:2:0
Битовая глубина : 8 бит
Тип развёртки : Прогрессивная
Бит/(Пиксели*Кадры) : 0.180
Размер потока : 1,57 Гбайт (72%)
Заголовок : Easy A
Библиотека кодирования : x264 core 125 r2208 d9d2288
Настройки программы : cabac=1 / ref=11 / deblock=1:-2:-1 / analyse=0x3:0x133 / me=umh / subme=9 / psy=1 / psy_rd=1.07:0.03 / mixed_ref=1 / me_range=32 / chroma_me=1 / trellis=2 / 8x8dct=1 / cqm=0 / deadzone=21,11 / fast_pskip=0 / chroma_qp_offset=-3 / threads=9 / lookahead_threads=1 / sliced_threads=0 / nr=0 / decimate=1 / interlaced=0 / bluray_compat=0 / constrained_intra=0 / bframes=12 / b_pyramid=2 / b_adapt=2 / b_bias=0 / direct=3 / weightb=1 / open_gop=0 / weightp=2 / keyint=240 / keyint_min=23 / scenecut=40 / intra_refresh=0 / rc_lookahead=100 / rc=2pass / mbtree=1 / bitrate=2491 / ratetol=1.0 / qcomp=0.70 / qpmin=0 / qpmax=69 / qpstep=4 / cplxblur=20.0 / qblur=0.5 / vbv_maxrate=20000 / vbv_bufsize=25000 / nal_hrd=none / ip_ratio=1.35 / aq=1:0.80
Язык : English
Default : Да
Forced : Нет

Аудио #1
Идентификатор : 2
Формат : AC-3
Формат/Информация : Audio Coding 3
Расширение режима : CM (complete main)
Параметр Endianness формата : Big
Идентификатор кодека : A_AC3
Продолжительность : 1 ч. 32 м.
Вид битрейта : Постоянный
Битрейт : 448 Кбит/сек
Каналы : 6 каналов
Расположение каналов : Front: L C R, Side: L R, LFE
Частота : 48,0 КГц
Битовая глубина : 16 бит
Метод сжатия : С потерями
Размер потока : 296 Мбайт (13%)
Заголовок : Dub | DD 5.1 @ 448 kbps - BD CEE
Язык : Russian
Default : Да
Forced : Да

Аудио #2
Идентификатор : 3
Формат : AC-3
Формат/Информация : Audio Coding 3
Расширение режима : CM (complete main)
Параметр Endianness формата : Big
Идентификатор кодека : A_AC3
Продолжительность : 1 ч. 32 м.
Вид битрейта : Постоянный
Битрейт : 448 Кбит/сек
Каналы : 6 каналов
Расположение каналов : Front: L C R, Side: L R, LFE
Частота : 48,0 КГц
Битовая глубина : 16 бит
Метод сжатия : С потерями
Размер потока : 296 Мбайт (13%)
Заголовок : Original | DD 5.1 @ 448 kbps
Язык : English
Default : Нет
Forced : Нет

Текст #1
Идентификатор : 4
Формат : UTF-8
Идентификатор кодека : S_TEXT/UTF8
Идентификатор кодека/Информация : UTF-8 Plain Text
Язык : English
Default : Нет
Forced : Нет

Текст #2
Идентификатор : 5
Формат : UTF-8
Идентификатор кодека : S_TEXT/UTF8
Идентификатор кодека/Информация : UTF-8 Plain Text
Язык : Russian
Default : Нет
Forced : Нет
avs [info]: 1032x558p 1:1 @ 2500000/104271 fps (cfr)
x264 [info]: using SAR=1/1
x264 [info]: using cpu capabilities: MMX2 SSE2Fast SSSE3 FastShuffle SSE4.2 AVX XOP FMA4 SSEMisalign LZCNT
x264 [info]: profile High, level 4.1
x264 [info]: frame I:1391 Avg QP:17.59 size: 69882
x264 [info]: frame P:29281 Avg QP:19.17 size: 27452
x264 [info]: frame B:102263 Avg QP:21.59 size: 8077
x264 [info]: consecutive B-frames: 2.0% 1.8% 6.1% 35.0% 17.6% 27.6% 4.0% 3.7% 0.9% 0.5% 0.2% 0.4% 0.1%
x264 [info]: mb I I16..4: 11.8% 66.3% 21.9%
x264 [info]: mb P I16..4: 1.1% 7.3% 1.7% P16..4: 44.0% 19.7% 19.5% 1.3% 0.4% skip: 5.1%
x264 [info]: mb B I16..4: 0.0% 0.5% 0.2% B16..8: 43.0% 9.6% 3.1% direct: 4.2% skip:39.4% L0:40.3% L1:47.8% BI:11.9%
x264 [info]: 8x8 transform intra:70.3% inter:62.4%
x264 [info]: direct mvs spatial:97.7% temporal:2.3%
x264 [info]: coded y,uvDC,uvAC intra: 85.1% 83.0% 59.8% inter: 21.4% 18.6% 3.2%
x264 [info]: i16 v,h,dc,p: 25% 19% 7% 50%
x264 [info]: i8 v,h,dc,ddl,ddr,vr,hd,vl,hu: 12% 11% 3% 9% 14% 15% 12% 12% 11%
x264 [info]: i4 v,h,dc,ddl,ddr,vr,hd,vl,hu: 10% 9% 3% 10% 16% 16% 13% 12% 12%
x264 [info]: i8c dc,h,v,p: 35% 24% 22% 19%
x264 [info]: Weighted P-Frames: Y:2.1% UV:0.7%
x264 [info]: ref P L0: 48.7% 11.9% 15.4% 6.0% 4.7% 3.7% 3.1% 1.8% 1.6% 1.5% 1.5% 0.2% 0.0%
x264 [info]: ref B L0: 78.8% 9.3% 4.6% 2.2% 1.6% 1.3% 1.0% 0.6% 0.4% 0.2%
x264 [info]: ref B L1: 93.1% 6.9%
x264 [info]: kb/s:2491.81

x264 [total]: encoded 132935 frames, 10.24 fps, 2491.81 kb/s

загрузка...
Правила, инструкции, FAQ!!!
Торрент  Добавлен [28 апр 2013, 13:51] Скачать торрент
Скачать торрент
[ Размер 11.48 КБ / Просмотров 10 ]

Статус  
 
Размер  2.19 ГБ
Приватный: Нет (DHT включён)
.torrent скачан  45
Как залить торрент? | Как скачать Torrent? | Как смотреть и слушать онлайн?  


     Отправить личное сообщение
   
Страница 1 из 1
Показать сообщения за:  Поле сортировки  
Начать новую тему Ответить на тему

   Похожие торренты   Автор   Ответы   Просмотры   Последнее сообщение 
В этой теме нет новых непрочитанных сообщений. Скачать торрент Проверен Отличница лёгкого поведения / Easy A (2010) [MP4|640x360] <HDRip>

в форуме Видео для смартфонов и КПК, Размер: 763.92 МБ, Здоровье: 0%

Anonymous

0
0|0

42
0

25 окт 2014, 23:13

Anonymous Перейти к последнему сообщению

В этой теме нет новых непрочитанных сообщений. Скачать торрент Проверен Отличница лёгкого поведения / Easy A (2010) HDRip | Лицензия

в форуме Драмы, Мелодрамы, Размер: 1.45 ГБ, Здоровье: 100%

Гость

0
203|132

122
65

05 июл 2015, 22:06

Гость Перейти к последнему сообщению

В этой теме нет новых непрочитанных сообщений. Закрыто правообладателем Дедушка легкого поведения / Dirty Grandpa (2016) WEB-DL 1080p | iTunes Данный торрент является блокированным, причина: Закрыто правообладателем

в форуме 720p | 1080p, Размер: 3.91 ГБ, Здоровье: 100%

Гость

0
2595|864

207
1762

03 май 2016, 21:25

Гость Перейти к последнему сообщению

В этой теме нет новых непрочитанных сообщений. Закрыто правообладателем Дедушка легкого поведения / Dirty Grandpa (2016) WEB-DLRip | iTunes Данный торрент является блокированным, причина: Закрыто правообладателем

в форуме Комедии, Размер: 1.45 ГБ, Здоровье: 100%

Гость

0
103|93

232
4

03 май 2016, 21:21

Гость Перейти к последнему сообщению

В этой теме нет новых непрочитанных сообщений. Скачать торрент Проверен Mildred Brand - Easy Cake Decorating Cookbook / Книга легкого украшения тортов [1980, PDF, ENG]

в форуме Кулинария, Размер: 11.31 МБ, Здоровье: 0%

Anonymous

0
0|0

0
0

19 окт 2016, 23:32

Anonymous Перейти к последнему сообщению



Сейчас этот форум просматривают: нет зарегистрированных пользователей и гости: 2


Вы не можете начинать темы
Вы не можете отвечать на сообщения
Вы не можете редактировать свои сообщения
Вы не можете удалять свои сообщения
Вы не можете добавлять вложения

Перейти:  

!ВНИМАНИЕ!
 Ресурс не предоставляет электронные версии произведений, а занимается лишь коллекционированием и каталогизацией ссылок, присылаемых и публикуемых на форуме нашими читателями. Если вы являетесь правообладателем какого-либо представленного материала и не желаете чтобы ссылка на него находилась в нашем каталоге, свяжитесь с нами и мы незамедлительно удалим её. Файлы для обмена на трекере предоставлены пользователями сайта, и администрация не несёт ответственности за их содержание. Просьба не заливать файлы, защищенные авторскими правами, а также файлы нелегального содержания!