На всех торрентах на трекере установлена скидка на скачивание в размере 100 процентов(а).
 Возможность скачивания торрента НЕ зависит от ограничений при низком ратио, низком аплоаде, требуемом ратио или требуемом аплоаде.


Начать новую тему Ответить на тему
Статистика раздачи
Размер: 1.62 ГБ | Добавлен: 27 апр 2013, 23:19 | Скачали: 0
Сидеров: 0  [0 байт/сек]    Личеров: 0  [0 байт/сек]
Пред. тема | След. тема 

Автор
Сообщение

СообщениеДобавлено: 27 апр 2013, 23:19 

Год выхода: 2001
Жанр: боевик, триллер, драма, комедия, криминал
Страна: США
Студия: Warner Bros. Pictures, Silver Pictures, Village Roadshow Pictures
Продолжительность: 01:37:09
Перевод 1: Авторский (профессиональный, одноголосный) [А.Гаврилов]
Перевод 2: Авторский (профессиональный, одноголосный) [Ю.Живов]
Перевод 3: Дублированный [Лицензия]
Режиссер: Анджей Бартковяк / Andrzej Bartkowiak

В фильме снимались: Стивен Сигал, DMX, Айзэйя Вашингтон, Энтони Андерсон, Майкл Джей Уайт, Билл Дьюк, Джилл Хеннесси, Том Арнольд, Брюс МакГилл, Давид Вадим и др.

Вкратце: Стивен Cигал и DMX не на шутку разбушевались в этом зажигательном триллере Джоэла Силвера. Именем детектива Орина Бойда из Детройта следовало бы назвать улицу. Вместо этого, после того как он днями и ночами охотился за наемными политическими убийцами, его переводят в дорожную полицию.
Кто-то хочет убрать Бойда с дороги, но ему стоит прислушаться к совету: «вызывай подкрепление»! Ветеран боевиков и мастер боевых искусств Сигал в роли Бойда, детектива со стальной волей. DMX, звезда рэпа, который покорил сердца кинозрителей в фильме «Ромео должен умереть», играет смышленого уличного парня, который может стать союзником Бойда в его борьбе с коррупцией в полиции. А может и не стать..


Качество: HDTVRip-AVC
Формат: MKV
Видео кодек: H.264
Аудио кодек: MP3, АС3
Видео: MPEG-4 AVC, 1024x432, 25.000 кадр/с, 1758-2131 Кбит/с
Звук 1: 48.0 KHz, MP3, 2 ch, 128 Кб/сек [А.Гаврилов]
Звук 2: 48.0 KHz, MP3, 2 ch, 128 Кб/сек [Ю.Живов]
Звук 3: 48.0 KHz, АС3, 6 ch, 384 Кб/сек [Дубляж]
E:INTERNETСквозные ранения .2001.HDTVRip.(Гаврилов+Живов+Дубляж).mkv
General
Unique ID : 237448334002911533057875289356031956166 (0xB2A2E2BB46B0459190915F0A2D5B14C6)
Complete name : E:INTERNETСквозные ранения .2001.HDTVRip.(Гаврилов+Живов+Дубляж).mkv
Format : Matroska
Format version : Version 4 / Version 2
File size : 1.62 GiB
Duration : 1h 37mn
Overall bit rate : 2 388 Kbps
Encoded date : UTC 2013-04-26 20:16:34
Writing application : mkvmerge v6.1.0 ('Old Devil') built on Mar 2 2013 14:32:37
Writing library : libebml v1.3.0 + libmatroska v1.4.0
Video #1
ID : 1
Format : AVC
Format/Info : Advanced Video Codec
Format profile : High@L3.1
Format settings, CABAC : Yes
Format settings, ReFrames : 4 frames
Codec ID : V_MPEG4/ISO/AVC
Duration : 1h 37mn
Bit rate : 1 758 Kbps
Width : 1 024 pixels
Height : 432 pixels
Display aspect ratio : 2.40:1
Frame rate mode : Constant
Frame rate : 25.000 fps
Color space : YUV
Chroma subsampling : 4:2:0
Bit depth : 8 bits
Scan type : Progressive
Bits/(Pixel*Frame) : 0.159
Stream size : 1.15 GiB (71%)
Writing library : x264 core 119 r2106 07efeb4
Encoding settings : cabac=1 / ref=3 / deblock=1:0:0 / analyse=0x3:0x113 / me=hex / subme=7 / psy=1 / psy_rd=1.00:0.00 / mixed_ref=1 / me_range=16 / chroma_me=1 / trellis=1 / 8x8dct=1 / cqm=0 / deadzone=21,11 / fast_pskip=1 / chroma_qp_offset=-2 / threads=3 / sliced_threads=0 / nr=0 / decimate=1 / interlaced=0 / bluray_compat=0 / constrained_intra=0 / bframes=3 / b_pyramid=2 / b_adapt=1 / b_bias=0 / direct=1 / weightb=1 / open_gop=0 / weightp=2 / keyint=250 / keyint_min=25 / scenecut=40 / intra_refresh=0 / rc_lookahead=40 / rc=abr / mbtree=1 / bitrate=1758 / ratetol=1.0 / qcomp=0.60 / qpmin=0 / qpmax=69 / qpstep=4 / ip_ratio=1.40 / aq=1:1.00
Default : Yes
Forced : No
Audio #2
ID : 2
Format : MPEG Audio
Format version : Version 1
Format profile : Layer 3
Codec ID : A_MPEG/L3
Codec ID/Hint : MP3
Duration : 1h 37mn
Bit rate mode : Constant
Bit rate : 128 Kbps
Channel(s) : 2 channels
Sampling rate : 48.0 KHz
Compression mode : Lossy
Stream size : 89.0 MiB (5%)
Title : Гаврилов
Writing library : LAME3.98r
Encoding settings : -m s -V 4 -q 2 -lowpass 17 -b 128
Language : Russian
Default : No
Forced : No
Audio #3
ID : 3
Format : MPEG Audio
Format version : Version 1
Format profile : Layer 3
Codec ID : A_MPEG/L3
Codec ID/Hint : MP3
Duration : 1h 37mn
Bit rate mode : Constant
Bit rate : 128 Kbps
Channel(s) : 2 channels
Sampling rate : 48.0 KHz
Compression mode : Lossy
Stream size : 88.9 MiB (5%)
Title : Живов
Writing library : LAME3.98r
Encoding settings : -m s -V 4 -q 2 -lowpass 17 -b 128
Language : Russian
Default : No
Forced : No
Audio #4
ID : 4
Format : AC-3
Format/Info : Audio Coding 3
Mode extension : CM (complete main)
Format settings, Endianness : Big
Codec ID : A_AC3
Duration : 1h 37mn
Bit rate mode : Constant
Bit rate : 384 Kbps
Channel(s) : 6 channels
Channel positions : Front: L C R, Side: L R, LFE
Sampling rate : 48.0 KHz
Bit depth : 16 bits
Compression mode : Lossy
Stream size : 267 MiB (16%)
Default : Yes
Forced : No

загрузка...
Правила, инструкции, FAQ!!!
Торрент  Добавлен [27 апр 2013, 23:19] Скачать торрент
Скачать торрент
[ Размер 16.91 КБ / Просмотров 5 ]

Статус  
 
Размер  1.62 ГБ
Приватный: Нет (DHT включён)
.torrent скачан  0
Как залить торрент? | Как скачать Torrent? | Как смотреть и слушать онлайн?  


     Отправить личное сообщение
   
Страница 1 из 1
Показать сообщения за:  Поле сортировки  
Начать новую тему Ответить на тему

   Похожие торренты   Автор   Ответы   Просмотры   Последнее сообщение 
В этой теме нет новых непрочитанных сообщений. Скачать торрент Проверен (Post-Thrash Metal) [24/192] [7LP] The Haunted - Made Me Do It, One Kill Wonder, rEVOLVEr, The Dead Eye, Versus, Unseen, Exit Wounds - 2000-2014, FLAC (image+.cue)

в форуме Зарубежный рок (оцифровки), Размер: 11.97 ГБ, Здоровье: 100%

Anonymous

0
2|1

1
0

25 авг 2016, 10:18

Anonymous Перейти к последнему сообщению

В этой теме нет новых непрочитанных сообщений. Скачать торрент Проверен Grinderman - Live At EXIT Festival [2011, Alternative, Post-Punk, Psyhodelic, HDTVRip]

в форуме Концерты (HD-Video), Размер: 1.89 ГБ, Здоровье: 100%

Anonymous

0
2|1

0
0

23 окт 2016, 19:10

Anonymous Перейти к последнему сообщению

В этой теме нет новых непрочитанных сообщений. Скачать торрент Проверен Santigold: Live at MTV Exit Festival [2011, alternative rock, new wave, dub, electronica, HDTVRip 1080i]

в форуме Концерты (HD-Video), Размер: 3.37 ГБ, Здоровье: 0%

Anonymous

0
0|0

2
0

23 окт 2016, 12:26

Anonymous Перейти к последнему сообщению

В этой теме нет новых непрочитанных сообщений. Скачать торрент Проверен (Progressive rock in YES style) You And I – Exit - 2001, APE (image+.cue), lossless

в форуме Progressive & Art-Rock, Размер: 357 МБ, Здоровье: 0%

Anonymous

0
0|0

0
0

30 авг 2016, 22:02

Anonymous Перейти к последнему сообщению

В этой теме нет новых непрочитанных сообщений. Скачать торрент Проверен KoRn - Blind (live @ MTV Exit festival 2009) (720p) [2009, Nu-metal, HDTVRip]

в форуме Концерты (HD-Video), Размер: 185.17 МБ, Здоровье: 100%

Anonymous

0
1|0

0
0

23 окт 2016, 12:01

Anonymous Перейти к последнему сообщению



Сейчас этот форум просматривают: нет зарегистрированных пользователей и гости: 3


Вы не можете начинать темы
Вы не можете отвечать на сообщения
Вы не можете редактировать свои сообщения
Вы не можете удалять свои сообщения
Вы не можете добавлять вложения

Перейти:  

!ВНИМАНИЕ!
 Ресурс не предоставляет электронные версии произведений, а занимается лишь коллекционированием и каталогизацией ссылок, присылаемых и публикуемых на форуме нашими читателями. Если вы являетесь правообладателем какого-либо представленного материала и не желаете чтобы ссылка на него находилась в нашем каталоге, свяжитесь с нами и мы незамедлительно удалим её. Файлы для обмена на трекере предоставлены пользователями сайта, и администрация не несёт ответственности за их содержание. Просьба не заливать файлы, защищенные авторскими правами, а также файлы нелегального содержания!