На всех торрентах на трекере установлена скидка на скачивание в размере 100 процентов(а).
 Возможность скачивания торрента НЕ зависит от ограничений при низком ратио, низком аплоаде, требуемом ратио или требуемом аплоаде.


Начать новую тему Ответить на тему
Статистика раздачи
Размер: 7.76 ГБ | Добавлен: 27 апр 2013, 17:50 | Скачали: 0
Сидеров: 0  [0 байт/сек]    Личеров: 0  [0 байт/сек]
Пред. тема | След. тема 

Автор
Сообщение

СообщениеДобавлено: 27 апр 2013, 17:50 

Название: Руслан
Оригинальное: Driven to Kill
Год выхода: 2009
Страна: США, Канада
Выпущено: Echo Bridge Entertainment LLC, Insight Film and Video Production Inc, Ruslan Productions, Steamroller Productions, Schminken Studio
Жанр: Боевик, триллер, криминал
Продолжительность: 01:38:10
Перевод: Профессиональный (Двухголосый закадровый)
Режиссер: Джефф Кинг

В фильме снимались: Стивен Сигал, Майк Допуд, Игорь Жижикин, Роберт Уизден, Инна Коробкина, Зак Сантьяго, Александр Рафальский, Евгений Лазарев, Лаура Меннелл, Алекс Паунович, Ингрид Торранс, Дмитрий Чеповецкий, Кристал Лоу, Дэниэл Кадмор, Джерри Cоут, Дэвид Хупер, Дэн Риззуто, Брэд Келли, Эд Эндерс, Роберт Бойс, Майк Десабрайс, Филлип Митчел, Робби Холлоуэй, Линда Минард, Брент Стейт, Пол Лейзенби, Брэд Лори, Хьюго Стил, Рег Туппер, Холли Эглингтон, Кристин Сатклифф, Колин Лоуренс, Дэррил Шилар, Джош Блэкер, Дэн Пэйн, Тодд Скотт, Френсин Коэн, Рита Тереза Эдвардс, Ясмин Вокс, Боб Гюнтер


Вкратце
Руслан - успешный писатель криминальных романов, которые основаны на историях из его далекого прошлого. Однажды он приезжает на свадьбу своей дочери и сына его старинного приятеля Михаила. Со времени последней встречи с Михаилом многое изменилось, Михаил стал лидером крупной преступной группировки. Руслан слишком поздно понимает, во что оказалась, втянута его семья. В день свадьбы случается страшная трагедия: бандиты расстреливают его дочь и жену. Жена погибает на месте, а дочь в тяжелом состоянии попадает в больницу. Руслан винит во всем себя и свое прошлое и начинает мстить. Теперь месть становится его настоящим призванием.





Кодек: x264
Формат: MKV
Качество: BDRip 1080p (Источник: Blu-ray Disc)
Видео: MPEG-4 AVC (1.85:1) 1920x1032, 23.976 fps, 10425 kbps
Аудио:
#1: Dolby Digital (5.1) 16 bit, 48 kHz, 448 kbps (RUS)
#2: Dolby Digital (5.1) 16 bit, 48 kHz, 448 kbps (ENG)
Субтитры: SRT Английские
Меню: Сохранены оригинальные чаптеры Blu-ray

Скриншоты

General
Unique ID : 238512382479963983185742408161531943479 (0xB36FD05F316AA23792A7A72E251A5A37)
Format : Matroska
Format version : Version 2
File size : 7.76 GiB
Duration : 1h 38mn
Overall bit rate : 11.3 Mbps
Movie name : Руслан (2009) BDRip (1080p)
Encoded date : UTC 2013-04-27 09:32:58
Writing application : mkvmerge v5.8.0 ('No Sleep / Pillow') built on Sep 2 2012 15:37:04
Writing library : libebml v1.2.3 + libmatroska v1.3.0

Video
ID : 1
Format : AVC
Format/Info : Advanced Video Codec
Format profile : High@L4.1
Format settings, CABAC : Yes
Format settings, ReFrames : 4 frames
Codec ID : V_MPEG4/ISO/AVC
Duration : 1h 38mn
Bit rate : 10.4 Mbps
Width : 1 920 pixels
Height : 1 032 pixels
Display aspect ratio : 1.85:1
Frame rate mode : Constant
Frame rate : 23.976 fps
Color space : YUV
Chroma subsampling : 4:2:0
Bit depth : 8 bits
Scan type : Progressive
Bits/(Pixel*Frame) : 0.219
Stream size : 6.99 GiB (90%)
Title : Release by Alex260680
Writing library : x264 core 130 r2273 b3065e6
Encoding settings : cabac=1 / ref=4 / deblock=1:-2:-2 / analyse=0x3:0x133 / me=umh / subme=10 / psy=1 / psy_rd=1.00:0.10 / mixed_ref=1 / me_range=32 / chroma_me=1 / trellis=2 / 8x8dct=1 / cqm=0 / deadzone=21,11 / fast_pskip=0 / chroma_qp_offset=-3 / threads=12 / lookahead_threads=1 / sliced_threads=0 / nr=0 / decimate=0 / interlaced=0 / bluray_compat=0 / constrained_intra=0 / bframes=6 / b_pyramid=2 / b_adapt=2 / b_bias=0 / direct=3 / weightb=1 / open_gop=0 / weightp=2 / keyint=240 / keyint_min=23 / scenecut=40 / intra_refresh=0 / rc=2pass / mbtree=0 / bitrate=10425 / ratetol=1.0 / qcomp=0.60 / qpmin=0 / qpmax=69 / qpstep=4 / cplxblur=20.0 / qblur=0.5 / ip_ratio=1.40 / pb_ratio=1.30 / aq=1:0.80
Language : English
Default : Yes
Forced : No

Audio #1
ID : 2
Format : AC-3
Format/Info : Audio Coding 3
Mode extension : CM (complete main)
Format settings, Endianness : Big
Codec ID : A_AC3
Duration : 1h 38mn
Bit rate mode : Constant
Bit rate : 448 Kbps
Channel(s) : 6 channels
Channel positions : Front: L C R, Side: L R, LFE
Sampling rate : 48.0 KHz
Bit depth : 16 bits
Compression mode : Lossy
Stream size : 315 MiB (4%)
Title : DVO (R5)
Language : Russian
Default : Yes
Forced : No

Audio #2
ID : 3
Format : AC-3
Format/Info : Audio Coding 3
Mode extension : CM (complete main)
Format settings, Endianness : Big
Codec ID : A_AC3
Duration : 1h 38mn
Bit rate mode : Constant
Bit rate : 448 Kbps
Channel(s) : 6 channels
Channel positions : Front: L C R, Side: L R, LFE
Sampling rate : 48.0 KHz
Bit depth : 16 bits
Compression mode : Lossy
Stream size : 315 MiB (4%)
Title : Original
Language : English
Default : No
Forced : No

Text
ID : 4
Format : UTF-8
Codec ID : S_TEXT/UTF8
Codec ID/Info : UTF-8 Plain Text
Language : English
Default : No
Forced : No

Menu
00:00:00.000 : en:Chapter1
00:05:00.000 : en:Chapter2
00:10:00.000 : en:Chapter3
00:15:00.000 : en:Chapter4
00:20:00.000 : en:Chapter5
00:25:00.000 : en:Chapter6
00:30:00.000 : en:Chapter7
00:35:00.000 : en:Chapter8
00:40:00.000 : en:Chapter9
00:45:00.000 : en:Chapter10
00:50:00.000 : en:Chapter11
00:55:00.000 : en:Chapter12
01:00:00.000 : en:Chapter13
01:05:00.000 : en:Chapter14
01:10:00.000 : en:Chapter15
01:15:00.000 : en:Chapter16
01:20:00.000 : en:Chapter17
01:25:00.000 : en:Chapter18
01:30:00.000 : en:Chapter19
01:35:00.000 : en:Chapter20

x264 [info]: frame I:1009 Avg QP:20.38 size:134041
x264 [info]: frame P:39416 Avg QP:22.42 size: 73905
x264 [info]: frame B:100768 Avg QP:25.31 size: 45864
Используемое программное обеспечение: "Eac3to", "XviD4PSP", "Sonic Foundry Soft Encode", "SupRip", "MKVToolNix"
загрузка...
Правила, инструкции, FAQ!!!
Торрент  Добавлен [27 апр 2013, 17:50] Скачать торрент
Скачать торрент
[ Размер 19.92 КБ / Просмотров 4 ]

Статус  
 
Размер  7.76 ГБ
Приватный: Нет (DHT включён)
.torrent скачан  0
Как залить торрент? | Как скачать Torrent? | Как смотреть и слушать онлайн?  


     Отправить личное сообщение
   
Страница 1 из 1
Показать сообщения за:  Поле сортировки  
Начать новую тему Ответить на тему

   Похожие торренты   Автор   Ответы   Просмотры   Последнее сообщение 
В этой теме нет новых непрочитанных сообщений. Скачать торрент Руслан / Driven to Kill (Джефф Кинг /Jeff f. King ) [2009 г., боевик, DVDRip]

в форуме Боевики, Размер: 697.17 МБ, Здоровье: 100%

Anonymous

0
2|1

42
0

03 апр 2014, 12:45

Anonymous Перейти к последнему сообщению

В этой теме нет новых непрочитанных сообщений. Убить гонца / Kill the Messenger (2014) BDRip 1080p | L2

в форуме Новинки кино, Размер: 11.29 ГБ, Здоровье: 39%

Гость

0
119|299

4663
98

29 янв 2015, 20:12

Гость Перейти к последнему сообщению

В этой теме нет новых непрочитанных сообщений. 3 дня на убийство / 3 Days to Kill (2014) BDRip 1080p| Чистый звук

в форуме Новинки кино, Размер: 6.81 ГБ, Здоровье: 100%

Anonymous

0
51|5

100
17

19 май 2014, 12:56

Anonymous Перейти к последнему сообщению

В этой теме нет новых непрочитанных сообщений. Скачать торрент Проверен Город грехов 2: Женщина, ради которой стоит убивать / Sin City: A Dame to Kill For (2014) BDRip 1080p от Ash61 | 3D-Video | halfOU

в форуме HD-Video в 3D, Размер: 7.52 ГБ, Здоровье: 100%

Anonymous

0
177|21

284
2432

08 ноя 2014, 18:36

Anonymous Перейти к последнему сообщению

В этой теме нет новых непрочитанных сообщений. Скачать торрент Проверен Linkin Park - New Divide (2009) BDRip 1080p (Джо Хан) [2009, Alternative rock, BDRip]

в форуме Концерты (HD-Video), Размер: 451.32 МБ, Здоровье: 100%

Anonymous

0
3|1

4
0

23 окт 2016, 11:54

Anonymous Перейти к последнему сообщению



Сейчас этот форум просматривают: нет зарегистрированных пользователей и гости: 3


Вы не можете начинать темы
Вы не можете отвечать на сообщения
Вы не можете редактировать свои сообщения
Вы не можете удалять свои сообщения
Вы не можете добавлять вложения

Перейти:  

!ВНИМАНИЕ!
 Ресурс не предоставляет электронные версии произведений, а занимается лишь коллекционированием и каталогизацией ссылок, присылаемых и публикуемых на форуме нашими читателями. Если вы являетесь правообладателем какого-либо представленного материала и не желаете чтобы ссылка на него находилась в нашем каталоге, свяжитесь с нами и мы незамедлительно удалим её. Файлы для обмена на трекере предоставлены пользователями сайта, и администрация не несёт ответственности за их содержание. Просьба не заливать файлы, защищенные авторскими правами, а также файлы нелегального содержания!