На всех торрентах на трекере установлена скидка на скачивание в размере 100 процентов(а).
 Возможность скачивания торрента НЕ зависит от ограничений при низком ратио, низком аплоаде, требуемом ратио или требуемом аплоаде.


Начать новую тему Ответить на тему
Статистика раздачи
Размер: 2.15 ГБ | Добавлен: 25 апр 2013, 12:15 | Скачали: 0
Сидеров: 0  [0 байт/сек]    Личеров: 0  [0 байт/сек]
Пред. тема | След. тема 

Автор
Сообщение

СообщениеДобавлено: 25 апр 2013, 12:15 

Год выпуска: 2011
Производство: Южная Корея / Lotte Entertainment
Жанр: Боевик, история
Продолжительность: 02:02:20
Перевод: Авторский (одноголосый закадровый) Ю.Сербин
Субтитры: Английские, русские
Навигация по главам: Есть


Режиссер: Ким Хан Мин

В фильме снимались: Хае-ил Парк, Сенг-юнг Рио, Рай Хеи Отани, Ким Гу Тхэк

Вкратце: В 1636 году полчища манчжуров пришли на земли государства Чосон, неся с собой смерть и разорение. Во время нападения на одну из деревень враги взяли в плен Ча Ин, юную сестру лучника Нам И, и ее жениха Со Гуна. Отважный герой решает во что бы то ни стало отыскать родных и спасти их от незавидной доли рабов в чужой стране. С этой целью он, повесив на спину свой верный лук, доставшийся ему от отца, и колчан со стрелами, отправляется в Китай, преследуя отряд, напавший на его родную деревню. Вскоре слухи о выдающимся лучнике, не знающем поражения, достигают манчжурского войска. Поймать и обезвредить неуловимого Нам И поручают полководцу Джушинта и его людям.





Качество: BDRip-AVC [BDRemux]
Формат: MKV
Видео: H.264, 972x414 (2,35:1), 23,976 кадр/сек, 2138 Кбит/сек, 0.222 bit/pixel
Аудио: 48 kHz, AC3 Dolby Digital, 3/2 (L,C,R,l,r) + LFE ch, ~448.00 kbps avg


Автор рипа:


Общее
Уникальный идентификатор : 232969799302551426560787696485824731660 (0xAF4459EC4580689A8187F2D164681A0C)
Полное имя : Strela.Absolyutnoe.Oruzhie.2011.Serbin.BDRip.x264.potroks.mkv
Формат : Matroska
Версия формата : Version 4 / Version 2
Размер файла : 2,15 Гбайт
Продолжительность : 2 ч. 2 м.
Общий поток : 2523 Кбит/сек
Название фильма : -=POTROKS=-
Дата кодирования : UTC 2013-04-25 04:06:19
Программа кодирования : mkvmerge v5.9.0 ('On The Loose') built on Dec 15 2012 16:39:58
Библиотека кодирования : libebml v1.3.0 + libmatroska v1.4.0

Видео
Идентификатор : 1
Формат : AVC
Формат/Информация : Advanced Video Codec
Профиль формата : High@L3.2
Параметр CABAC формата : Да
Параметр ReFrames формата : 10 кадров
Идентификатор кодека : V_MPEG4/ISO/AVC
Продолжительность : 2 ч. 2 м.
Битрейт : 2138 Кбит/сек
Ширина : 972 пикселя
Высота : 414 пикселей
Соотношение сторон : 2,35:1
Режим частоты кадров : Постоянный
Частота кадров : 23,976 кадра/сек
Цветовое пространство : YUV
Субдискретизация насыщенности : 4:2:0
Битовая глубина : 8 бит
Тип развёртки : Прогрессивная
Бит/(Пиксели*Кадры) : 0.222
Размер потока : 1,78 Гбайт (83%)
Заголовок : Choi-jong-byeong-gi Hwal
Библиотека кодирования : x264 core 125 r2200 999b753
Настройки программы : cabac=1 / ref=10 / deblock=1:-2:-1 / analyse=0x3:0x133 / me=umh / subme=11 / psy=1 / psy_rd=1.00:0.08 / mixed_ref=1 / me_range=32 / chroma_me=1 / trellis=2 / 8x8dct=1 / cqm=0 / deadzone=21,11 / fast_pskip=0 / chroma_qp_offset=-3 / threads=6 / lookahead_threads=1 / sliced_threads=0 / nr=0 / decimate=0 / interlaced=0 / bluray_compat=0 / constrained_intra=0 / bframes=11 / b_pyramid=2 / b_adapt=2 / b_bias=0 / direct=3 / weightb=1 / open_gop=0 / weightp=2 / keyint=240 / keyint_min=23 / scenecut=40 / intra_refresh=0 / rc_lookahead=60 / rc=2pass / mbtree=0 / bitrate=2138 / ratetol=1.0 / qcomp=0.70 / qpmin=10 / qpmax=51 / qpstep=4 / cplxblur=20.0 / qblur=0.5 / vbv_maxrate=20000 / vbv_bufsize=20000 / nal_hrd=none / ip_ratio=1.35 / pb_ratio=1.25 / aq=2:2.00
Язык : English
Default : Да
Forced : Нет

Аудио
Идентификатор : 2
Формат : AC-3
Формат/Информация : Audio Coding 3
Расширение режима : CM (complete main)
Параметр Endianness формата : Big
Идентификатор кодека : A_AC3
Продолжительность : 2 ч. 2 м.
Вид битрейта : Постоянный
Битрейт : 384 Кбит/сек
Каналы : 6 каналов
Расположение каналов : Front: L C R, Side: L R, LFE
Частота : 48,0 КГц
Битовая глубина : 16 бит
Метод сжатия : С потерями
Задержка видео : 12 мс.
Размер потока : 336 Мбайт (15%)
Заголовок : Сербин | DD 5.1 @ 384 kbps
Язык : Russian
Default : Да
Forced : Нет

Текст #1
Идентификатор : 3
Формат : UTF-8
Идентификатор кодека : S_TEXT/UTF8
Идентификатор кодека/Информация : UTF-8 Plain Text
Язык : English
Default : Нет
Forced : Нет

Текст #2
Идентификатор : 4
Формат : UTF-8
Идентификатор кодека : S_TEXT/UTF8
Идентификатор кодека/Информация : UTF-8 Plain Text
Язык : Russian
Default : Нет
Forced : Нет

Меню
00:00:00.000 : en:00:00:00.000
00:06:44.154 : en:00:06:44.154
00:10:35.635 : en:00:10:35.635
00:15:49.991 : en:00:15:49.991
00:21:14.273 : en:00:21:14.273
00:27:15.676 : en:00:27:15.676
00:33:40.977 : en:00:33:40.977
00:41:32.573 : en:00:41:32.573
00:48:50.094 : en:00:48:50.094
00:54:07.411 : en:00:54:07.411
01:04:06.009 : en:01:04:06.009
01:11:16.314 : en:01:11:16.314
01:19:31.433 : en:01:19:31.433
01:26:06.536 : en:01:26:06.536
01:32:53.443 : en:01:32:53.443
01:38:57.723 : en:01:38:57.723
01:47:06.128 : en:01:47:06.128
01:58:28.977 : en:01:58:28.977

: en:01:58:28.977
x264 [info]: frame I:1955 Avg QP:19.50 size: 53348
x264 [info]: frame P:44655 Avg QP:22.18 size: 17954
x264 [info]: frame B:129214 Avg QP:22.30 size: 8152
x264 [info]: consecutive B-frames: 4.6% 4.9% 13.0% 24.2% 15.3% 29.9% 3.8% 1.2% 1.4% 0.4% 0.3% 0.9%
x264 [info]: mb I I16..4: 7.5% 69.6% 22.9%
x264 [info]: mb P I16..4: 1.3% 21.2% 3.2% P16..4: 29.3% 30.0% 7.2% 2.5% 0.2% skip: 5.2%
x264 [info]: mb B I16..4: 0.2% 3.6% 0.5% B16..8: 34.7% 22.3% 3.9% direct: 6.4% skip:28.4% L0:42.7% L1:47.1% BI:10.2%
x264 [info]: 8x8 transform intra:81.3% inter:59.8%
x264 [info]: direct mvs spatial:98.8% temporal:1.2%
x264 [info]: coded y,uvDC,uvAC intra: 89.0% 70.9% 34.8% inter: 29.5% 17.1% 4.5%
x264 [info]: i16 v,h,dc,p: 24% 11% 9% 55%
x264 [info]: i8 v,h,dc,ddl,ddr,vr,hd,vl,hu: 6% 6% 5% 10% 15% 14% 15% 13% 15%
x264 [info]: i4 v,h,dc,ddl,ddr,vr,hd,vl,hu: 7% 7% 4% 9% 16% 15% 16% 11% 14%
x264 [info]: i8c dc,h,v,p: 36% 28% 19% 18%
x264 [info]: Weighted P-Frames: Y:5.0% UV:2.6%
x264 [info]: ref P L0: 55.6% 10.0% 14.0% 6.3% 4.4% 3.3% 2.5% 1.5% 1.2% 1.0% 0.2% 0.0%
x264 [info]: ref B L0: 77.1% 11.8% 4.9% 2.3% 1.5% 1.1% 0.8% 0.4% 0.2%
x264 [info]: ref B L1: 94.3% 5.7%
x264 [info]: kb/s:2137.47














загрузка...
Правила, инструкции, FAQ!!!
Торрент  Добавлен [25 апр 2013, 12:15] Скачать торрент
Скачать торрент
[ Размер 11.22 КБ / Просмотров 9 ]

Статус  
 
Размер  2.15 ГБ
Приватный: Нет (DHT включён)
.torrent скачан  0
Как залить торрент? | Как скачать Torrent? | Как смотреть и слушать онлайн?  


     Отправить личное сообщение
   
Страница 1 из 1
Показать сообщения за:  Поле сортировки  
Начать новую тему Ответить на тему

   Похожие торренты   Автор   Ответы   Просмотры   Последнее сообщение 
В этой теме нет новых непрочитанных сообщений. Скачать торрент Проверен (Rock/Радиороман) Радист и Абсолютное Оружие - Обратная Сторона Лета + Single Songs [2011], MP3, 320 kbps

в форуме Русский Рок, Размер: 223.31 МБ, Здоровье: 0%

Anonymous

0
0|0

2
0

22 авг 2016, 14:00

Anonymous Перейти к последнему сообщению

В этой теме нет новых непрочитанных сообщений. Скачать торрент Проверен Василий Головачев, Алексей Евтушенко, Василий Звягинцев | Абсолютное оружие. Коллекция в 7 томах [2011-2012] [FB2](Обновлено 26 января 2013)

в форуме Многоавторские сборники, Размер: 24.96 МБ, Здоровье: 100%

Anonymous

0
145|6

158
12

18 авг 2014, 14:50

Anonymous Перейти к последнему сообщению

В этой теме нет новых непрочитанных сообщений. Скачать торрент Проверен Книжная серия «Абсолютное оружие» (618 книг)[1996-2012] [FB2]

в форуме Многоавторские сборники, Размер: 513.59 МБ, Здоровье: 100%

Anonymous

0
61|10

145
17

18 авг 2014, 15:15

Anonymous Перейти к последнему сообщению

В этой теме нет новых непрочитанных сообщений. Скачать торрент Проверен Валин Юрий - Абсолютное оружие 1, Выйти из боя [Мила Пыхтина (ЛИ), (ЛИ), 2014 г., 192 kbps, MP3]

в форуме Российская фантастика, фэнтези, мистика, ужасы, фанфики, Размер: 1.07 ГБ, Здоровье: 0%

Anonymous

0
0|0

2
0

10 сен 2016, 19:49

Anonymous Перейти к последнему сообщению

В этой теме нет новых непрочитанных сообщений. Скачать торрент Проверен Валерий Соловей | Абсолютное оружие. Основы психологической войны и медиаманипулирования (2015) [FB2]

в форуме Популярная психология, Размер: 929.52 КБ, Здоровье: 100%

Anonymous

0
480|7

189
23

19 янв 2016, 20:45

Anonymous Перейти к последнему сообщению



Сейчас этот форум просматривают: нет зарегистрированных пользователей и гости: 1


Вы не можете начинать темы
Вы не можете отвечать на сообщения
Вы не можете редактировать свои сообщения
Вы не можете удалять свои сообщения
Вы не можете добавлять вложения

Перейти:  

!ВНИМАНИЕ!
 Ресурс не предоставляет электронные версии произведений, а занимается лишь коллекционированием и каталогизацией ссылок, присылаемых и публикуемых на форуме нашими читателями. Если вы являетесь правообладателем какого-либо представленного материала и не желаете чтобы ссылка на него находилась в нашем каталоге, свяжитесь с нами и мы незамедлительно удалим её. Файлы для обмена на трекере предоставлены пользователями сайта, и администрация не несёт ответственности за их содержание. Просьба не заливать файлы, защищенные авторскими правами, а также файлы нелегального содержания!