На всех торрентах на трекере установлена скидка на скачивание в размере 100 процентов(а).
 Возможность скачивания торрента НЕ зависит от ограничений при низком ратио, низком аплоаде, требуемом ратио или требуемом аплоаде.


Начать новую тему Ответить на тему
Статистика раздачи
Размер: 6.92 ГБ | Добавлен: 26 фев 2015, 20:37 | Скачали: 156
Сидеров: 5  [0 байт/сек]    Личеров: 0  [0 байт/сек]
Пред. тема | След. тема 

Автор
Сообщение

СообщениеДобавлено: 26 фев 2015, 20:37 

Название: Воры как мы
Оригинальное название: Thieves Like Us
Год выхода: 1974
Жанр: драма, мелодрама, криминал
Режиссер: Роберт Олтмэн / Robert Altman
В ролях: Кит Кэрредин (Bowie), Шелли Дювалл (Keechie), Джон Шак (Chicamaw), Берт Ремсен (T-Dub), Луиз Флетчер (Mattie), Энн Лэтэм (Lula), Том Скерритт (Dee Mobley), Аль Скотт (Capt. Stammers), Джон Роупер (Jasbo), Мэри Уэйтс (Noel Joy), Родни Ли (James Mattingly), Уильям Уоттерс (Alvin), Джоан Тьюксбери (Lady in Train Station), Элинор Мэтьюз (Mrs. Stammers), Пэм Уорнер (Woman in Accident), Уолтер Купер (Sheriff)

О фильме:
Молодой убийца и бандит бегут вместе с матерым уголовником из каторжной тюрьмы Миссисипи. На свободе они снова принимаются за «работу», единственную, которую умеют делать, — грабить банки. Последнее ограбление проходит крайне неудачно, и банде приходится заплатить за все предыдущие успехи.

Страна: США
Студия: George Litto Productions, Jerry Bick
Продолжительность: 02:02:48.000
Перевод: Профессиональный (многоголосый закадровый)


Кодек: h.264
Качество: BDRip 720p
Видео: 1280x688 (1.85:1), 23.976 fps, AVC, ~7439 Kbps, 0.352 bits/pixel
Звук:
Русский, 48.0 KHz, AC3, 2 ch, 160 Kbps
Английский, 48.0 KHz, AC3, 2 ch, 448 Kbps (все двойное моно)
Субтитры: Английские, PGS

Общее
Уникальный идентификатор : 221405566958360307972644893373817907551 (0xA691293F8C42DD2CBCC7A326F1FB695F)
Полное имя : G:FILMSVory_kak_my.1974.BDRip720p.mkv
Формат : Matroska
Версия формата : Version 4 / Version 2
Размер файла : 6,92 Гбайт
Продолжительность : 2 ч. 2 м.
Общий поток : 8063 Кбит/сек
Дата кодирования : UTC 2015-02-08 07:43:10
Программа кодирования : mkvmerge v7.4.0 ('Circles') 64bit built on Dec 12 2014 12:19:56
Библиотека кодирования : libebml v1.3.0 + libmatroska v1.4.1
_STATISTICS_WRITING_APP : mkvmerge v7.4.0 ('Circles') 64bit built on Dec 12 2014 12:19:56
_STATISTICS_WRITING_DATE_UTC : 2015-02-08 07:43:10
_STATISTICS_TAGS : BPS DURATION NUMBER_OF_FRAMES NUMBER_OF_BYTES
DURATION : 02:02:48.000000000
NUMBER_OF_FRAMES : 230250
NUMBER_OF_BYTES : 147360000

Видео
Идентификатор : 1
Формат : AVC
Формат/Информация : Advanced Video Codec
Профиль формата : High@L4.1
Параметр CABAC формата : Да
Параметр ReFrames формата : 9 кадров
Идентификатор кодека : V_MPEG4/ISO/AVC
Продолжительность : 2 ч. 2 м.
Битрейт : 7439 Кбит/сек
Ширина : 1280 пикселей
Высота : 688 пикселей
Соотношение сторон : 1,85:1
Режим частоты кадров : Постоянный
Частота кадров : 23,976 кадра/сек
Цветовое пространство : YUV
Субдискретизация насыщенности : 4:2:0
Битовая глубина : 8 бит
Тип развёртки : Прогрессивная
Бит/(Пиксели*Кадры) : 0.352
Размер потока : 6,26 Гбайт (90%)
Библиотека кодирования : x264 core 142 r2431 ac76440
Настройки программы : cabac=1 / ref=9 / deblock=1:-3:-3 / analyse=0x3:0x133 / me=umh / subme=10 / psy=1 / psy_rd=1.10:0.10 / mixed_ref=1 / me_range=32 / chroma_me=1 / trellis=2 / 8x8dct=1 / cqm=0 / deadzone=21,11 / fast_pskip=0 / chroma_qp_offset=-6 / threads=8 / lookahead_threads=2 / sliced_threads=0 / nr=0 / decimate=0 / interlaced=0 / bluray_compat=0 / constrained_intra=0 / bframes=11 / b_pyramid=2 / b_adapt=2 / b_bias=0 / direct=3 / weightb=1 / open_gop=0 / weightp=2 / keyint=240 / keyint_min=23 / scenecut=40 / intra_refresh=0 / rc_lookahead=60 / rc=2pass / mbtree=0 / bitrate=7439 / ratetol=1.0 / qcomp=0.60 / qpmin=0 / qpmax=69 / qpstep=4 / cplxblur=20.0 / qblur=0.5 / vbv_maxrate=50000 / vbv_bufsize=62500 / nal_hrd=none / filler=0 / ip_ratio=1.40 / pb_ratio=1.30 / aq=1:1.00
Default : Нет
Forced : Нет
Основные цвета : BT.709
Характеристики трансфера : BT.709
Коэффициенты матрицы : BT.709
colour_range : Limited
_STATISTICS_WRITING_APP : mkvmerge v7.4.0 ('Circles') 64bit built on Dec 12 2014 12:19:56
_STATISTICS_WRITING_DATE_UTC : 2015-02-08 07:43:10
_STATISTICS_TAGS : BPS DURATION NUMBER_OF_FRAMES NUMBER_OF_BYTES
DURATION : 02:02:47.360000000
NUMBER_OF_FRAMES : 176640
NUMBER_OF_BYTES : 6850489582

Аудио #1
Идентификатор : 2
Формат : AC-3
Формат/Информация : Audio Coding 3
Расширение режима : CM (complete main)
Параметр Endianness формата : Big
Идентификатор кодека : A_AC3
Продолжительность : 2 ч. 2 м.
Вид битрейта : Постоянный
Битрейт : 160 Кбит/сек
Каналы : 2 канала
Расположение каналов : Front: L R
Частота : 48,0 КГц
Битовая глубина : 16 бит
Метод сжатия : С потерями
Размер потока : 141 Мбайт (2%)
Язык : Russian
Default : Да
Forced : Нет

Аудио #2
Идентификатор : 3
Формат : AC-3
Формат/Информация : Audio Coding 3
Расширение режима : CM (complete main)
Параметр Endianness формата : Big
Идентификатор кодека : A_AC3
Продолжительность : 2 ч. 2 м.
Вид битрейта : Постоянный
Битрейт : 448 Кбит/сек
Каналы : 2 канала
Расположение каналов : Front: L R
Частота : 48,0 КГц
Битовая глубина : 16 бит
Метод сжатия : С потерями
Размер потока : 393 Мбайт (6%)
Язык : English
Default : Нет
Forced : Нет

Текст
Идентификатор : 4
Формат : PGS
Режим смешивания : zlib
Идентификатор кодека : S_HDMV/PGS
Идентификатор кодека/Информация : The same subtitle format used on BDs/HD-DVDs
Язык : English
Default : Нет
Forced : Нет

Меню
00:00:00.000 : en:00:00:00.000
00:14:50.473 : en:00:14:50.473
00:33:12.949 : en:00:33:12.949
00:49:16.704 : en:00:49:16.704
01:10:38.359 : en:01:10:38.359
01:24:32.943 : en:01:24:32.943
01:40:46.332 : en:01:40:46.332
01:51:49.745 : en:01:51:49.745


frame I:1027 Avg QP:17.53 size:119625
frame P:29029 Avg QP:19.74 size: 62323
frame B:146584 Avg QP:21.70 size: 33554


Исходник BD25 от Kino Lober
http://www.blu-ray.com/movies/Thieves-Like-Us-Blu-ray/102898/

загрузка...
Правила, инструкции, FAQ!!!
Торрент  Добавлен [26 фев 2015, 20:37] Скачать торрент
Скачать торрент
[ Размер 17.84 КБ / Просмотров 9 ]

Статус
Проверен 
 
Размер  6.92 ГБ
Приватный: Нет (DHT включён)
.torrent скачан  156
Как залить торрент? | Как скачать Torrent? | Как смотреть и слушать онлайн?  


     Отправить личное сообщение
   
Страница 1 из 1
Показать сообщения за:  Поле сортировки  
Начать новую тему Ответить на тему

   Похожие торренты   Автор   Ответы   Просмотры   Последнее сообщение 
В этой теме нет новых непрочитанных сообщений. Скачать торрент Проверен (Hard Rock) Carnival Of Thieves - Den Of Thieves - 2014, MP3, 320 kbps

в форуме Classic Rock & Hard Rock, Размер: 194.82 МБ, Здоровье: 0%

Anonymous

0
0|0

0
0

13 ноя 2016, 17:26

Anonymous Перейти к последнему сообщению

В этой теме нет новых непрочитанных сообщений. Скачать торрент Проверен (Melodic Rock | AOR) Among Thieves - Among Thieves - 1992, MP3, 320 kbps

в форуме AOR (Melodic Hard Rock, Arena rock), Размер: 119.07 МБ, Здоровье: 0%

Anonymous

0
0|0

0
0

08 окт 2016, 00:57

Anonymous Перейти к последнему сообщению

В этой теме нет новых непрочитанных сообщений. Скачать торрент Проверен Шугарлендский экспресс / The Sugarland Express (1974) BDRip [720p]

в форуме 720p | 1080p, Размер: 8.2 ГБ, Здоровье: 100%

Гость

0
53|10

26
0

29 ноя 2014, 21:46

Гость Перейти к последнему сообщению

В этой теме нет новых непрочитанных сообщений. Скачать торрент Проверен (Classic Rock) Petty Thieves - Petty Thieves - 2016, MP3, 320 kbps

в форуме Classic Rock & Hard Rock, Размер: 82.05 МБ, Здоровье: 0%

Anonymous

0
0|0

0
0

14 ноя 2016, 17:56

Anonymous Перейти к последнему сообщению

В этой теме нет новых непрочитанных сообщений. Скачать торрент Проверен (шансон) Павел Яцюк - Жулики и воры - 1996, FLAC (image+.cue), lossless

в форуме Шансон|Авторская песня, Размер: 296.15 МБ, Здоровье: 100%

Anonymous

0
2|1

43
2

05 окт 2014, 00:56

Anonymous Перейти к последнему сообщению



Сейчас этот форум просматривают: нет зарегистрированных пользователей и гости: 1


Вы не можете начинать темы
Вы не можете отвечать на сообщения
Вы не можете редактировать свои сообщения
Вы не можете удалять свои сообщения
Вы не можете добавлять вложения

Перейти:  

!ВНИМАНИЕ!
 Ресурс не предоставляет электронные версии произведений, а занимается лишь коллекционированием и каталогизацией ссылок, присылаемых и публикуемых на форуме нашими читателями. Если вы являетесь правообладателем какого-либо представленного материала и не желаете чтобы ссылка на него находилась в нашем каталоге, свяжитесь с нами и мы незамедлительно удалим её. Файлы для обмена на трекере предоставлены пользователями сайта, и администрация не несёт ответственности за их содержание. Просьба не заливать файлы, защищенные авторскими правами, а также файлы нелегального содержания!