На всех торрентах на трекере установлена скидка на скачивание в размере 100 процентов(а).
 Возможность скачивания торрента НЕ зависит от ограничений при низком ратио, низком аплоаде, требуемом ратио или требуемом аплоаде.


Начать новую тему Ответить на тему
Статистика раздачи
Размер: 6.37 ГБ | Добавлен: 21 фев 2015, 18:54 | Скачали: 5
Сидеров: 16  [0 байт/сек]    Личеров: 30  [0 байт/сек]
Пред. тема | След. тема 

Автор
Сообщение

СообщениеДобавлено: 21 фев 2015, 18:54 

Название: Женщины на грани нервного срыва
Оригинальное название: Mujeres al borde de un ataque de nervios
Год выхода: 1988
Жанр: драма, комедия
Режиссер: Педро Альмодовар
В ролях: Кармен Маура (Pepa), Антонио Бандерас (Carlos), Хульета Серрано (Lucía), Росси де Пальма (Marisa), Мария Барранко (Candela), Кити Манвер (Paulina Morales), Гильермо Монтесинос (Taxista), Чус Лампреаве (Portera Testiga de Jehová), Эдуардо Кальво (Padre de Lucía), Лолес Леон (Secretaria), Анхел де Андрес Лопес (Policía I), Фернандо Гильен (Iván)

О фильме:
Ее бросил любовник, его жена не дает ей проходу, ее подруга связалась с террористами, а ее адвокат оказалась обыкновенной дрянью. Можно ли пережить все это и не сойти с ума?


Страна: Испания
Студия: El Deseo S.A., Laurenfilm S.A.
Продолжительность: 01:28:20
Перевод: Профессиональный (многоголосый, закадровый)


Кодек: h.264
Качество: BDRip 1080p
Видео: MPEG-4 AVC, 1920x1040, 9 200 Кбит/с, 23.976 кадр/с
Звук:
Аудио #1: Русский ( AC3, 2ch, 448 Кбит/с, 48.0 KH z) Профессиональный (многоголосый, закадровый) R5, Кармен Видео
Аудио #2: Испанский (AC3, 2ch, 640 Кбит/с, 48.0 KHz)
Субтитры: русские, испанские
Complete name : Mujeres.al.borde.de.un.ataque.de.nervios.mkv
Format : Matroska
Format version : Version 4 / Version 2
File size : 6.37 GiB
Duration : 1h 28mn
Overall bit rate : 10.3 Mbps
Encoded date : UTC 2015-02-21 12:38:16
Writing application : mkvmerge v6.9.1 ('Blue Panther') 64bit built on Apr 18 2014 18:23:38
Writing library : libebml v1.3.0 + libmatroska v1.4.1

Video
ID : 1
Format : AVC
Format/Info : Advanced Video Codec
Format profile : High@L4.1
Format settings, CABAC : Yes
Format settings, ReFrames : 4 frames
Codec ID : V_MPEG4/ISO/AVC
Bit rate : 9 200 Kbps
Width : 1 920 pixels
Height : 1 040 pixels
Display aspect ratio : 1.85:1
Frame rate mode : Variable
Original frame rate : 23.976 fps
Color space : YUV
Chroma subsampling : 4:2:0
Bit depth : 8 bits
Scan type : Progressive
Bits/(Pixel*Frame) : 0.192
Title : Video
Writing library : x264 core 130 r2273 b3065e6
Encoding settings : cabac=1 / ref=4 / deblock=1:-1:-1 / analyse=0x3:0x113 / me=umh / subme=11 / psy=1 / psy_rd=1.00:0.15 / mixed_ref=1 / me_range=32 / chroma_me=1 / trellis=2 / 8x8dct=1 / cqm=0 / deadzone=21,11 / fast_pskip=0 / chroma_qp_offset=2 / threads=6 / lookahead_threads=1 / sliced_threads=0 / nr=0 / decimate=1 / interlaced=0 / bluray_compat=0 / constrained_intra=0 / bframes=8 / b_pyramid=2 / b_adapt=2 / b_bias=0 / direct=3 / weightb=1 / open_gop=1 / weightp=2 / keyint=250 / keyint_min=23 / scenecut=40 / intra_refresh=0 / rc_lookahead=50 / rc=2pass / mbtree=1 / bitrate=9200 / ratetol=1.0 / qcomp=0.69 / qpmin=0 / qpmax=69 / qpstep=4 / cplxblur=20.0 / qblur=0.5 / ip_ratio=1.40 / aq=1:1.00
Language : Spanish
Default : Yes
Forced : No

Audio #1
ID : 2
Format : AC-3
Format/Info : Audio Coding 3
Mode extension : CM (complete main)
Format settings, Endianness : Big
Codec ID : A_AC3
Duration : 1h 28mn
Bit rate mode : Constant
Bit rate : 448 Kbps
Channel(s) : 2 channels
Channel positions : Front: L R
Sampling rate : 48.0 KHz
Bit depth : 16 bits
Compression mode : Lossy
Stream size : 283 MiB (4%)
Title : Audio 1
Language : Russian
Default : Yes
Forced : No

Audio #2
ID : 3
Format : AC-3
Format/Info : Audio Coding 3
Mode extension : CM (complete main)
Format settings, Endianness : Big
Codec ID : A_AC3
Duration : 1h 28mn
Bit rate mode : Constant
Bit rate : 640 Kbps
Channel(s) : 2 channels
Channel positions : Front: L R
Sampling rate : 48.0 KHz
Bit depth : 16 bits
Compression mode : Lossy
Stream size : 404 MiB (6%)
Title : Audio 2
Language : Spanish
Default : No
Forced : No

Text #1
ID : 4
Format : PGS
Muxing mode : zlib
Codec ID : S_HDMV/PGS
Codec ID/Info : The same subtitle format used on BDs/HD-DVDs
Language : Russian
Default : Yes
Forced : No

Text #2
ID : 5
Format : PGS
Muxing mode : zlib
Codec ID : S_HDMV/PGS
Codec ID/Info : The same subtitle format used on BDs/HD-DVDs
Language : Spanish
Default : No
Forced : No

загрузка...
Правила, инструкции, FAQ!!!
Торрент  Добавлен [21 фев 2015, 18:54] Скачать торрент
Скачать торрент
[ Размер 16.6 КБ / Просмотров 3 ]

Статус
Проверен 
 
Размер  6.37 ГБ
Приватный: Нет (DHT включён)
.torrent скачан  5
Как залить торрент? | Как скачать Torrent? | Как смотреть и слушать онлайн?  


     Отправить личное сообщение
   
Страница 1 из 1
Показать сообщения за:  Поле сортировки  
Начать новую тему Ответить на тему

   Похожие торренты   Автор   Ответы   Просмотры   Последнее сообщение 
В этой теме нет новых непрочитанных сообщений. Скачать торрент Проверен Виллоу / Willow (1988) BDRip [1080p]

в форуме 720p | 1080p, Размер: 14.65 ГБ, Здоровье: 100%

Гость

0
58|1

30
1

11 дек 2014, 21:40

Гость Перейти к последнему сообщению

В этой теме нет новых непрочитанных сообщений. Скачать торрент Проверен На грани / Man on a Ledge (2012) BDRip 720p | Лицензия

в форуме 720p | 1080p, Размер: 4.23 ГБ, Здоровье: 100%

Anonymous

0
43|2

13
545

19 июл 2014, 17:19

Anonymous Перейти к последнему сообщению

В этой теме нет новых непрочитанных сообщений. Скачать торрент Проверен Кровавый спорт / Bloodsport (1988) BDRip 1080p

в форуме 720p | 1080p, Размер: 7.75 ГБ, Здоровье: 100%

Anonymous

0
15|5

24
305

27 сен 2014, 19:52

Anonymous Перейти к последнему сообщению

В этой теме нет новых непрочитанных сообщений. Скачать торрент Проверен Замужем за мафией / Married to the Mob (1988) BDRip 1080p | D, P, P2, A

в форуме 720p | 1080p, Размер: 11.65 ГБ, Здоровье: 81%

Гость

0
27|33

35
36

18 ноя 2016, 21:42

Гость Перейти к последнему сообщению

В этой теме нет новых непрочитанных сообщений. Скачать торрент Новая рождественская сказка / Scrooged (1988) BDRip 1080p

в форуме 720p | 1080p, Размер: 7.74 ГБ, Здоровье: 100%

Anonymous

0
6|3

45
2

28 дек 2013, 15:19

Anonymous Перейти к последнему сообщению



Сейчас этот форум просматривают: нет зарегистрированных пользователей и гости: 2


Вы не можете начинать темы
Вы не можете отвечать на сообщения
Вы не можете редактировать свои сообщения
Вы не можете удалять свои сообщения
Вы не можете добавлять вложения

Перейти:  

!ВНИМАНИЕ!
 Ресурс не предоставляет электронные версии произведений, а занимается лишь коллекционированием и каталогизацией ссылок, присылаемых и публикуемых на форуме нашими читателями. Если вы являетесь правообладателем какого-либо представленного материала и не желаете чтобы ссылка на него находилась в нашем каталоге, свяжитесь с нами и мы незамедлительно удалим её. Файлы для обмена на трекере предоставлены пользователями сайта, и администрация не несёт ответственности за их содержание. Просьба не заливать файлы, защищенные авторскими правами, а также файлы нелегального содержания!