На всех торрентах на трекере установлена скидка на скачивание в размере 100 процентов(а).
 Возможность скачивания торрента НЕ зависит от ограничений при низком ратио, низком аплоаде, требуемом ратио или требуемом аплоаде.


Начать новую тему Ответить на тему
Статистика раздачи
Размер: 7.92 ГБ | Добавлен: 21 фев 2015, 15:17 | Скачали: 0
Сидеров: 72  [0 байт/сек]    Личеров: 3  [0 байт/сек]
Пред. тема | След. тема 

Автор
Сообщение

СообщениеДобавлено: 21 фев 2015, 15:17 

Производство: Австралия, Mini Studios
Жанр: Драма, Мелодрама

Режиссер: Стивен Лэнс
Актеры: Эммануэль Беар, Харрисон Гилбертсон, Рэйчел Блэйк, Сократис Отто, Хью Паркер, Леа Пурселл, Малкольм Кеннард, Робин Мур, Ной Фонтейн, Монетт Ли

Описание фильма:
Красивые и невинные отношения, завязавшиеся между романтичным подростком и француженкой, склонной к садомазохизму, вскоре становятся очень опасными…

Семпл

Дата мировой премьеры: 14 августа 2014
Дата российской премьеры: 27 ноября 2014

Продолжительность: 01:40:04
Качество видео: BDRip
Перевод: Многоголосый закадровый, профессиональный
Субтитры: Отсутствуют

Видеокодек: MPEG-4 AVC/H.264
Битрейт видео: ~9207 Кбит/с
Размер кадра: 1920х816

Аудио 1: Русский AC3, 6 ch, 384 Кбит/с
Аудио 2: Английский DTS, 6 ch, 1510 Кбит/с
General
Complete name : O:\2015\Moja.Gospozha.2014.BDRip.1080p.mkv
Format : Matroska
File size : 7.92 GiB
Duration : 1h 40mn
Overall bit rate : 11.3 Mbps
Encoded date : UTC 2015-02-20 11:50:07
Writing application : mkvmerge v7.6.0 ('Garden of Dreams') 64bit built on Feb 8 2015 13:04:34
Writing library : libebml v1.3.1 + libmatroska v1.4.2

Video
ID : 1
Format : AVC
Format/Info : Advanced Video Codec
Format profile :
Format settings, CABAC : Yes
Format settings, ReFrames : 5 frames
Muxing mode : Container profile=Unknown@4.1
Codec ID : V_MPEG4/ISO/AVC
Duration : 1h 40mn
Bit rate : 9 207 Kbps
Nominal bit rate : 9 438 Kbps
Width : 1 920 pixels
Height : 816 pixels
Display aspect ratio : 2.35:1
Frame rate : 25.000 fps
Resolution : 8 bits
Colorimetry : 4:2:0
Scan type : Progressive
Bits/(Pixel*Frame) : 0.235
Stream size : 6.44 GiB (81%)
Writing library : x264 core 144 r2525 40bb568
Encoding settings : cabac=1 / ref=5 / deblock=1:-3:-3 / analyse=0x3:0x133 / me=umh / subme=8 / psy=1 / psy_rd=1.00:0.15 / mixed_ref=1 / me_range=16 / chroma_me=1 / trellis=1 / 8x8dct=1 / cqm=0 / deadzone=21,11 / fast_pskip=0 / chroma_qp_offset=-3 / threads=18 / lookahead_threads=3 / sliced_threads=0 / nr=0 / decimate=1 / interlaced=0 / bluray_compat=0 / constrained_intra=0 / bframes=3 / b_pyramid=2 / b_adapt=2 / b_bias=0 / direct=3 / weightb=1 / open_gop=0 / weightp=2 / keyint=250 / keyint_min=25 / scenecut=40 / intra_refresh=0 / rc_lookahead=50 / rc=2pass / mbtree=1 / bitrate=9438 / ratetol=1.0 / qcomp=0.60 / qpmin=0 / qpmax=69 / qpstep=4 / cplxblur=20.0 / qblur=0.5 / ip_ratio=1.40 / aq=1:1.00

Audio #1
ID : 2
Format : AC-3
Format/Info : Audio Coding 3
Codec ID : A_AC3
Duration : 1h 40mn
Bit rate mode : Constant
Bit rate : 384 Kbps
Channel(s) : 6 channels
Channel positions : Front: L C R, Surround: L R, LFE
Sampling rate : 48.0 KHz
Stream size : 275 MiB (3%)
Language : Russian

Audio #2
ID : 3
Format : DTS
Format/Info : Digital Theater Systems
Codec ID : A_DTS
Duration : 1h 40mn
Bit rate mode : Constant
Bit rate : 1 510 Kbps
Channel(s) : 6 channels
Channel positions : Front: L C R, Surround: L R, LFE
Sampling rate : 48.0 KHz
Resolution : 24 bits
Stream size : 1.06 GiB (13%)

Menu
00:00:00.000 : en:00:00:00.000
00:11:07.000 : en:00:11:07.000
00:23:40.000 : en:00:23:40.000
00:36:59.000 : en:00:36:59.000
00:49:50.000 : en:00:49:50.000
01:03:21.000 : en:01:03:21.000
01:12:23.000 : en:01:12:23.000
01:21:26.000 : en:01:21:26.000
01:35:30.000 : en:01:35:30.000

Скриншоты:

загрузка...
Правила, инструкции, FAQ!!!
Торрент  Добавлен [21 фев 2015, 15:17] Скачать торрент
Скачать торрент
[ Размер 40.28 КБ / Просмотров 8 ]

Статус
Проверен 
 
Размер  7.92 ГБ
Приватный: Нет (DHT включён)
.torrent скачан  0
Как залить торрент? | Как скачать Torrent? | Как смотреть и слушать онлайн?  


     Отправить личное сообщение
   
Страница 1 из 1
Показать сообщения за:  Поле сортировки  
Начать новую тему Ответить на тему

   Похожие торренты   Автор   Ответы   Просмотры   Последнее сообщение 
В этой теме нет новых непрочитанных сообщений. Скачать торрент Проверен Моя Госпожа / My Mistress (2013) BDRip [576p] iPad

в форуме Фильмы для iPod, iPhone, iPad, Размер: 1.68 ГБ, Здоровье: 100%

Anonymous

0
2|1

60
0

13 сен 2015, 00:54

Anonymous Перейти к последнему сообщению

В этой теме нет новых непрочитанных сообщений. Скачать торрент Проверен Моя Госпожа / My Mistress (2014) SATRip | P

в форуме Драмы, Мелодрамы, Размер: 1.46 ГБ, Здоровье: 100%

Гость

0
1530|198

78
9626

24 дек 2014, 00:15

Гость Перейти к последнему сообщению

В этой теме нет новых непрочитанных сообщений. Скачать торрент Проверен Андрей Чернецов, Владимир Лещенко | Госпожа Удачи (2014) [FB2]

в форуме Фантастика, фэнтези, Размер: 1.33 МБ, Здоровье: 100%

Anonymous

0
24|1

21
1

04 авг 2014, 19:27

Anonymous Перейти к последнему сообщению

В этой теме нет новых непрочитанных сообщений. Скачать торрент Проверен (Hard Rock) Mistress - Loveteaser - 2014, MP3, 320 kbps

в форуме Classic Rock & Hard Rock, Размер: 79.15 МБ, Здоровье: 0%

Anonymous

0
0|0

0
0

13 ноя 2016, 17:58

Anonymous Перейти к последнему сообщению

В этой теме нет новых непрочитанных сообщений. Скачать торрент Проверен (Heavy Metal) Night Mistress - Into The Madness - 2014, MP3, 320 kbps

в форуме Heavy, Power, Progressive (Metal), Размер: 112.96 МБ, Здоровье: 0%

Anonymous

0
0|0

0
0

09 окт 2016, 11:45

Anonymous Перейти к последнему сообщению



Сейчас этот форум просматривают: нет зарегистрированных пользователей и гости: 4


Вы не можете начинать темы
Вы не можете отвечать на сообщения
Вы не можете редактировать свои сообщения
Вы не можете удалять свои сообщения
Вы не можете добавлять вложения

Перейти:  

!ВНИМАНИЕ!
 Ресурс не предоставляет электронные версии произведений, а занимается лишь коллекционированием и каталогизацией ссылок, присылаемых и публикуемых на форуме нашими читателями. Если вы являетесь правообладателем какого-либо представленного материала и не желаете чтобы ссылка на него находилась в нашем каталоге, свяжитесь с нами и мы незамедлительно удалим её. Файлы для обмена на трекере предоставлены пользователями сайта, и администрация не несёт ответственности за их содержание. Просьба не заливать файлы, защищенные авторскими правами, а также файлы нелегального содержания!