На всех торрентах на трекере установлена скидка на скачивание в размере 100 процентов(а).
 Возможность скачивания торрента НЕ зависит от ограничений при низком ратио, низком аплоаде, требуемом ратио или требуемом аплоаде.


Начать новую тему Ответить на тему
Статистика раздачи
Размер: 6.83 ГБ | Добавлен: 23 апр 2013, 07:47 | Скачали: 0
Сидеров: 0  [0 байт/сек]    Личеров: 0  [0 байт/сек]
Пред. тема | След. тема 

Автор
Сообщение

СообщениеДобавлено: 23 апр 2013, 07:47 

Название: Полный абзац
Оригинальное название: Whole Lotta Sole (Stand Off)
Год выпуска: 2011
Жанр: Драма, комедия
Выпущено: Великобритания, Generator Entertainment, Media Pro Six, Menlo Park Productions
Продолжительность: 01:29:18
Перевод: Профессиональный многоголосый

Режиссер: Терри Джордж

В фильме снимались: Брендан Фрейзер, Колм Мини, Мартин МакКанн, Йайа ДаКоста, Дэвид О’Хара, Майкл Лидж, Конор МакНил, Фрэнки МакКафферти, Руперт Викхэм, Мэри МакКроссен

Вкратце: Дело происходит в Северной Ирландии. В центре сюжета — молодой бездельник Джимбо, ступивший на скользкую дорожку азартных игр. Дебют вышел не слишком удачным: Джимбо проигрался в пух и прах, и теперь ему нужно рассчитаться с долгами. Не придумав ничего лучше, парень решает ограбить рыбную лавку, но и тут Джимбо ждут осложнения: предприятие принимает серьезный оборот, и горе-грабителю приходится взять заложников.



Формат: mkv
Качество: BDRip 1080p
Видео: MPEG-4 AVC, 8999 Кбит/с, 1920x1040
Аудио 1: Русский (AC3, 6 ch, 448 Кбит/с)
Аудио 2: Английский (DTS, 6 ch, 1509 Кбит/с)

Автор: balamut2010

Формат : Matroska
Версия формата : Version 4 / Version 2
Размер файла : 6,83 Гбайт
Продолжительность : 1 ч. 29 м.
Общий поток : 11,0 Мбит/сек
Дата кодирования : UTC 2013-04-22 16:20:15
Программа кодирования : mkvmerge v6.1.0 ('Old Devil') built on Mar 2 2013 14:32:37
Библиотека кодирования : libebml v1.3.0 + libmatroska v1.4.0

Видео
Идентификатор : 1
Формат : AVC
Формат/Информация : Advanced Video Codec
Профиль формата : High@L4.1
Параметр CABAC формата : Да
Параметр ReFrames формата : 4 кадра
Идентификатор кодека : V_MPEG4/ISO/AVC
Продолжительность : 1 ч. 29 м.
Битрейт : 8999 Кбит/сек
Ширина : 1920 пикселей
Высота : 1040 пикселей
Соотношение сторон : 1,85:1
Режим частоты кадров : Постоянный
Частота кадров : 23,976 кадра/сек
Цветовое пространство : YUV
Субдискретизация насыщенности : 4:2:0
Битовая глубина : 8 бит
Тип развёртки : Прогрессивная
Бит/(Пиксели*Кадры) : 0.188
Размер потока : 5,48 Гбайт (80%)
Библиотека кодирования : x264 core 130 r2273 b3065e6
Настройки программы : cabac=1 / ref=4 / deblock=1:0:0 / analyse=0x3:0x133 / me=umh / subme=7 / psy=1 / psy_rd=1.00:0.00 / mixed_ref=1 / me_range=16 / chroma_me=1 / trellis=1 / 8x8dct=1 / cqm=0 / deadzone=21,11 / fast_pskip=0 / chroma_qp_offset=-2 / threads=12 / lookahead_threads=2 / sliced_threads=0 / nr=0 / decimate=1 / interlaced=0 / bluray_compat=0 / constrained_intra=0 / bframes=3 / b_pyramid=2 / b_adapt=2 / b_bias=0 / direct=3 / weightb=1 / open_gop=0 / weightp=2 / keyint=250 / keyint_min=23 / scenecut=40 / intra_refresh=0 / rc_lookahead=50 / rc=2pass / mbtree=1 / bitrate=8999 / ratetol=1.0 / qcomp=0.60 / qpmin=0 / qpmax=69 / qpstep=4 / cplxblur=20.0 / qblur=0.5 / ip_ratio=1.40 / aq=1:1.00
Язык : English
Default : Да
Forced : Нет

Аудио #1
Идентификатор : 2
Формат : AC-3
Формат/Информация : Audio Coding 3
Расширение режима : CM (complete main)
Параметр Endianness формата : Big
Идентификатор кодека : A_AC3
Продолжительность : 1 ч. 29 м.
Вид битрейта : Постоянный
Битрейт : 448 Кбит/сек
Каналы : 6 каналов
Расположение каналов : Front: L C R, Side: L R, LFE
Частота : 48,0 КГц
Битовая глубина : 16 бит
Метод сжатия : С потерями
Размер потока : 286 Мбайт (4%)
Язык : Russian
Default : Да
Forced : Нет

Аудио #2
Идентификатор : 3
Формат : DTS
Формат/Информация : Digital Theater Systems
Режим : 16
Параметр Endianness формата : Big
Идентификатор кодека : A_DTS
Продолжительность : 1 ч. 29 м.
Вид битрейта : Постоянный
Битрейт : 1509 Кбит/сек
Каналы : 6 каналов
Расположение каналов : Front: L C R, Side: L R, LFE
Частота : 48,0 КГц
Битовая глубина : 24 бит
Метод сжатия : С потерями
Размер потока : 964 Мбайт (14%)
Язык : English
Default : Нет
Forced : Нет

Меню
00:00:00.000 : en:00:00:00.000
00:06:12.330 : en:00:06:12.330
00:14:48.888 : en:00:14:48.888
00:22:57.293 : en:00:22:57.293
00:30:56.188 : en:00:30:56.188
00:39:12.517 : en:00:39:12.517
00:48:19.355 : en:00:48:19.355
00:56:30.012 : en:00:56:30.012
01:03:09.953 : en:01:03:09.953
01:09:46.974 : en:01:09:46.974
01:16:33.798 : en:01:16:33.798
01:25:46.224 : en:01:25:46.224

загрузка...
Правила, инструкции, FAQ!!!
Торрент  Добавлен [23 апр 2013, 07:47] Скачать торрент
Скачать торрент
[ Размер 34.59 КБ / Просмотров 5 ]

Статус  
 
Размер  6.83 ГБ
Приватный: Нет (DHT включён)
.torrent скачан  0
Как залить торрент? | Как скачать Torrent? | Как смотреть и слушать онлайн?  


     Отправить личное сообщение
   
Страница 1 из 1
Показать сообщения за:  Поле сортировки  
Начать новую тему Ответить на тему

   Похожие торренты   Автор   Ответы   Просмотры   Последнее сообщение 
В этой теме нет новых непрочитанных сообщений. Скачать торрент Проверен (Power Metal) Sole Survivor - Sole Survivor [EP] - 2016, MP3, 320 kbps

в форуме Heavy, Power, Progressive (Metal), Размер: 57.93 МБ, Здоровье: 0%

Anonymous

0
0|0

0
0

09 окт 2016, 16:34

Anonymous Перейти к последнему сообщению

В этой теме нет новых непрочитанных сообщений. Скачать торрент Проверен Золушка: Полный вперед! 3Д / Cendrillon au Far West 3D (Паскаль Эрольд / Pascal Herold) [2012, мультфильм, Blu-ray Disc 1080p] BD3D

в форуме 3D Мультфильмы, Размер: 19.29 ГБ, Здоровье: 0%

Anonymous

0
0|0

3
0

07 сен 2016, 18:16

Anonymous Перейти к последнему сообщению

В этой теме нет новых непрочитанных сообщений. Скачать торрент Тор в 3Д / Thor 3D (2011) BDRip 1080p | 3D-Video

в форуме HD-Video в 3D, Размер: 10.84 ГБ, Здоровье: 100%

Anonymous

0
18|1

68
55

26 янв 2014, 19:22

Anonymous Перейти к последнему сообщению

В этой теме нет новых непрочитанных сообщений. Скачать торрент Проверен Блэкторн / Blackthorn (2011) BDRip 1080p | P2, L2, A

в форуме 720p | 1080p, Размер: 8.94 ГБ, Здоровье: 100%

Гость

0
53|8

186
20

07 авг 2016, 09:21

Гость Перейти к последнему сообщению

В этой теме нет новых непрочитанных сообщений. Скачать торрент Коломбиана / Colombiana (2011) BDRip 1080p

в форуме 720p | 1080p, Размер: 7.75 ГБ, Здоровье: 0%

Anonymous

0
0|0

36
0

21 янв 2014, 13:01

Anonymous Перейти к последнему сообщению



Сейчас этот форум просматривают: нет зарегистрированных пользователей и гости: 1


Вы не можете начинать темы
Вы не можете отвечать на сообщения
Вы не можете редактировать свои сообщения
Вы не можете удалять свои сообщения
Вы не можете добавлять вложения

Перейти:  

!ВНИМАНИЕ!
 Ресурс не предоставляет электронные версии произведений, а занимается лишь коллекционированием и каталогизацией ссылок, присылаемых и публикуемых на форуме нашими читателями. Если вы являетесь правообладателем какого-либо представленного материала и не желаете чтобы ссылка на него находилась в нашем каталоге, свяжитесь с нами и мы незамедлительно удалим её. Файлы для обмена на трекере предоставлены пользователями сайта, и администрация не несёт ответственности за их содержание. Просьба не заливать файлы, защищенные авторскими правами, а также файлы нелегального содержания!