На всех торрентах на трекере установлена скидка на скачивание в размере 100 процентов(а).
 Возможность скачивания торрента НЕ зависит от ограничений при низком ратио, низком аплоаде, требуемом ратио или требуемом аплоаде.


Начать новую тему Ответить на тему
Статистика раздачи
Размер: 11.01 ГБ | Добавлен: 10 фев 2015, 18:23 | Скачали: 258
Сидеров: 34  [0 байт/сек]    Личеров: 1  [0 байт/сек]
Пред. тема | След. тема 

Автор
Сообщение

СообщениеДобавлено: 10 фев 2015, 18:23 

Название: Гудзонский ястреб
Оригинальное название: Hudson Hawk
Год выхода: 1991
Жанр: Боевик, комедия, приключения

Режиссер: Майкл Леманн

В ролях: Брюс Уиллис, Дэнни Айелло, Энди МакДауэлл, Джеймс Коберн, Ричард Э. Грант, Сандра Бернхард, Дональд Бертон, Дон Харви, Дэвид Карузо, Эндрю Бринярски

О фильме: «Гудзонский Ястреб» — прозвище непревзойденного вора Эдди, который может открыть любой сейф за считанные секунды. Выйдя из тюрьмы, король кражи решает уйти на заслуженный отдых. Но слишком многие на свободе заинтересованы в его криминальном таланте.
С помощью шантажа коварные злоумышленники заставляют Эдди совершить ограбление века: он должен похитить три шедевра Леонардо Да Винчи из самых охраняемых музеев мира всего за несколько дней! «Гудзонский Ястреб» снова отправляется на охоту, но на этот раз в бескрайнем небе он не одинок…



Выпущено: США
Студия: TriStar Pictures
Продолжительность: 01:39:54
Перевод: Профессиональный (полное дублирование) x 2
Перевод: Профессиональный (многоголосый закадровый) x 3
Перевод: Авторский (одноголосый закадровый) x 5
Оригинальная звуковая дорожка: Английский
Субтитры: Русские, английские

Качество: BDRip 1080p
Формат: MKV
Видео кодек: H264
Аудио кодек: AC3
Видео: MPEG4 Video (H264), 1920x1040, 23.976 fps, 12.0 Mbps
Аудио #01: Русский: Dolby AC3, 48000Hz, 4ch, 640 kbps - Дубляж, Blu-ray EUR
Аудио #02: Русский: Dolby AC3, 48000Hz, 2ch, 192 kbps - Дубляж, Варус-видео
Аудио #03: Русский: Dolby AC3, 48000Hz, 2ch, 192 kbps - Многоголосый, ОРТ
Аудио #04: Русский: Dolby AC3, 48000Hz, 2ch, 192 kbps - Многоголосый, Первый канал
Аудио #05: Русский: Dolby AC3, 48000Hz, 2ch, 192 kbps - Одноголосый, CDV
Аудио #07: Русский: Dolby AC3, 48000Hz, 2ch, 448 kbps - Одноголосый, А.Гаврилов
Аудио #08: Русский: Dolby AC3, 48000Hz, 2ch, 192 kbps - Одноголосый, А.Гаврилов (старый перевод)
Аудио #09: Русский: Dolby AC3, 48000Hz, 2ch, 448 kbps - Одноголосый, Ю.Живов
Аудио #10: Русский: Dolby AC3, 48000Hz, 2ch, 448 kbps - Одноголосый, В.Горчаков
Аудио #11: Украинский: Dolby AC3, 48000Hz, 2ch, 192 kbps - Многоголосый, ИНТЕР
Аудио #12: Английский: Dolby AC3, 48000Hz, 2ch, 448 kbps
Формат субтитров: Softsub (SRT)

Сэмпл

General
Unique ID : 226870095022742762292172671030438305833 (0xAAAD97486F7BF40395982F4D1496A029)
Complete name : F:Torrent 21991.Hudson.Hawk.renta23.mkv
Format : Matroska
Format version : Version 4 / Version 2
File size : 11.0 GiB
Duration : 1h 39mn
Overall bit rate : 15.8 Mbps
Movie name : renta23
Encoded date : UTC 2015-02-10 09:39:06
Writing application : mkvmerge v7.5.0 ('Glass Culture') 32bit built on Jan 4 2015 16:37:25
Writing library : libebml v1.3.1 + libmatroska v1.4.2
DURATION : 01:39:22.039000000
NUMBER_OF_FRAMES : 1328
NUMBER_OF_BYTES : 47107
_STATISTICS_WRITING_APP : mkvmerge v7.5.0 ('Glass Culture') 32bit built on Jan 4 2015 16:37:25
_STATISTICS_WRITING_DATE_UTC : 2015-02-10 09:39:06
_STATISTICS_TAGS : BPS DURATION NUMBER_OF_FRAMES NUMBER_OF_BYTES

Video
ID : 1
Format : AVC
Format/Info : Advanced Video Codec
Format profile : High@L4.1
Format settings, CABAC : Yes
Format settings, ReFrames : 3 frames
Codec ID : V_MPEG4/ISO/AVC
Duration : 1h 39mn
Bit rate : 12.0 Mbps
Width : 1 920 pixels
Height : 1 040 pixels
Display aspect ratio : 1.85:1
Frame rate mode : Constant
Frame rate : 23.976 fps
Color space : YUV
Chroma subsampling : 4:2:0
Bit depth : 8 bits
Scan type : Progressive
Bits/(Pixel*Frame) : 0.251
Stream size : 8.15 GiB (74%)
Title : Гудзонский ястреб 1991 / renta23
Writing library : x264 core 125 r2208 d9d2288
Encoding settings : cabac=1 / ref=4 / deblock=1:-1:-1 / analyse=0x3:0x113 / me=tesa / subme=11 / psy=1 / psy_rd=1.15:0.25 / mixed_ref=1 / me_range=32 / chroma_me=1 / trellis=2 / 8x8dct=1 / cqm=0 / deadzone=21,11 / fast_pskip=1 / chroma_qp_offset=-4 / threads=12 / lookahead_threads=2 / sliced_threads=0 / nr=0 / decimate=1 / interlaced=0 / bluray_compat=0 / constrained_intra=0 / bframes=12 / b_pyramid=1 / b_adapt=2 / b_bias=0 / direct=3 / weightb=1 / open_gop=0 / weightp=2 / keyint=250 / keyint_min=23 / scenecut=40 / intra_refresh=0 / rc_lookahead=40 / rc=2pass / mbtree=1 / bitrate=12000 / ratetol=1.0 / qcomp=0.60 / qpmin=0 / qpmax=69 / qpstep=4 / cplxblur=20.0 / qblur=0.5 / ip_ratio=1.40 / aq=2:1.00
Language : English
Default : Yes
Forced : No

Audio #1
ID : 2
Format : AC-3
Format/Info : Audio Coding 3
Mode extension : CM (complete main)
Format settings, Endianness : Big
Codec ID : A_AC3
Duration : 1h 39mn
Bit rate mode : Constant
Bit rate : 640 Kbps
Channel(s) : 4 channels
Channel positions : Front: L C R, Back: C
Sampling rate : 48.0 KHz
Bit depth : 16 bits
Compression mode : Lossy
Stream size : 457 MiB (4%)
Title : Дубляж, Blu-ray EUR
Language : Russian
Default : Yes
Forced : No

Audio #2
ID : 3
Format : AC-3
Format/Info : Audio Coding 3
Mode extension : CM (complete main)
Format settings, Endianness : Big
Codec ID : A_AC3
Duration : 1h 39mn
Bit rate mode : Constant
Bit rate : 192 Kbps
Channel(s) : 2 channels
Channel positions : Front: L R
Sampling rate : 48.0 KHz
Bit depth : 16 bits
Compression mode : Lossy
Stream size : 137 MiB (1%)
Title : Дубляж, Варус-видео
Language : Russian
Default : No
Forced : No

Audio #3
ID : 4
Format : AC-3
Format/Info : Audio Coding 3
Mode extension : CM (complete main)
Format settings, Endianness : Big
Codec ID : A_AC3
Duration : 1h 39mn
Bit rate mode : Constant
Bit rate : 192 Kbps
Channel(s) : 2 channels
Channel positions : Front: L R
Sampling rate : 48.0 KHz
Bit depth : 16 bits
Compression mode : Lossy
Stream size : 137 MiB (1%)
Title : Многоголосый, ОРТ
Language : Russian
Default : No
Forced : No

Audio #4
ID : 5
Format : AC-3
Format/Info : Audio Coding 3
Mode extension : CM (complete main)
Format settings, Endianness : Big
Codec ID : A_AC3
Duration : 1h 39mn
Bit rate mode : Constant
Bit rate : 192 Kbps
Channel(s) : 2 channels
Channel positions : Front: L R
Sampling rate : 48.0 KHz
Bit depth : 16 bits
Compression mode : Lossy
Stream size : 137 MiB (1%)
Title : Многоголосый, Первый канал
Language : Russian
Default : No
Forced : No

Audio #5
ID : 6
Format : AC-3
Format/Info : Audio Coding 3
Mode extension : CM (complete main)
Format settings, Endianness : Big
Codec ID : A_AC3
Duration : 1h 39mn
Bit rate mode : Constant
Bit rate : 192 Kbps
Channel(s) : 2 channels
Channel positions : Front: L R
Sampling rate : 48.0 KHz
Bit depth : 16 bits
Compression mode : Lossy
Stream size : 137 MiB (1%)
Title : Многоголосый, НТВ
Language : Russian
Default : No
Forced : No

Audio #6
ID : 7
Format : AC-3
Format/Info : Audio Coding 3
Mode extension : CM (complete main)
Format settings, Endianness : Big
Codec ID : A_AC3
Duration : 1h 39mn
Bit rate mode : Constant
Bit rate : 192 Kbps
Channel(s) : 2 channels
Channel positions : Front: L R
Sampling rate : 48.0 KHz
Bit depth : 16 bits
Compression mode : Lossy
Stream size : 137 MiB (1%)
Title : Одноголосый, CDV
Language : Russian
Default : No
Forced : No

Audio #7
ID : 8
Format : AC-3
Format/Info : Audio Coding 3
Mode extension : CM (complete main)
Format settings, Endianness : Big
Codec ID : A_AC3
Duration : 1h 39mn
Bit rate mode : Constant
Bit rate : 448 Kbps
Channel(s) : 2 channels
Channel positions : Front: L R
Sampling rate : 48.0 KHz
Bit depth : 16 bits
Compression mode : Lossy
Stream size : 320 MiB (3%)
Title : Одноголосый, А.Гаврилов
Language : Russian
Default : No
Forced : No

Audio #8
ID : 9
Format : AC-3
Format/Info : Audio Coding 3
Mode extension : CM (complete main)
Format settings, Endianness : Big
Codec ID : A_AC3
Duration : 1h 39mn
Bit rate mode : Constant
Bit rate : 192 Kbps
Channel(s) : 2 channels
Channel positions : Front: L R
Sampling rate : 48.0 KHz
Bit depth : 16 bits
Compression mode : Lossy
Stream size : 137 MiB (1%)
Title : Одноголосый, А.Гаврилов (старый перевод)
Language : Russian
Default : No
Forced : No

Audio #9
ID : 10
Format : AC-3
Format/Info : Audio Coding 3
Mode extension : CM (complete main)
Format settings, Endianness : Big
Codec ID : A_AC3
Duration : 1h 39mn
Bit rate mode : Constant
Bit rate : 448 Kbps
Channel(s) : 2 channels
Channel positions : Front: L R
Sampling rate : 48.0 KHz
Bit depth : 16 bits
Compression mode : Lossy
Stream size : 320 MiB (3%)
Title : Одноголосый, Ю.Живов
Language : Russian
Default : No
Forced : No

Audio #10
ID : 11
Format : AC-3
Format/Info : Audio Coding 3
Mode extension : CM (complete main)
Format settings, Endianness : Big
Codec ID : A_AC3
Duration : 1h 39mn
Bit rate mode : Constant
Bit rate : 448 Kbps
Channel(s) : 2 channels
Channel positions : Front: L R
Sampling rate : 48.0 KHz
Bit depth : 16 bits
Compression mode : Lossy
Stream size : 320 MiB (3%)
Title : Одноголосый, В.Горчаков
Language : Russian
Default : No
Forced : No

Audio #11
ID : 12
Format : AC-3
Format/Info : Audio Coding 3
Mode extension : CM (complete main)
Format settings, Endianness : Big
Codec ID : A_AC3
Duration : 1h 39mn
Bit rate mode : Constant
Bit rate : 192 Kbps
Channel(s) : 2 channels
Channel positions : Front: L R
Sampling rate : 48.0 KHz
Bit depth : 16 bits
Compression mode : Lossy
Stream size : 137 MiB (1%)
Title : Многоголосый, ИНТЕР
Language : Ukrainian
Default : No
Forced : No

Audio #12
ID : 13
Format : AC-3
Format/Info : Audio Coding 3
Mode extension : CM (complete main)
Format settings, Endianness : Big
Codec ID : A_AC3
Duration : 1h 39mn
Bit rate mode : Constant
Bit rate : 448 Kbps
Channel(s) : 2 channels
Channel positions : Front: L R
Sampling rate : 48.0 KHz
Bit depth : 16 bits
Compression mode : Lossy
Stream size : 320 MiB (3%)
Language : English
Default : No
Forced : No

Text #1
ID : 14
Format : UTF-8
Codec ID : S_TEXT/UTF8
Codec ID/Info : UTF-8 Plain Text
Language : Russian
Default : No
Forced : No

Text #2
ID : 15
Format : UTF-8
Codec ID : S_TEXT/UTF8
Codec ID/Info : UTF-8 Plain Text
Language : English
Default : No
Forced : No

Menu
00:00:00.000 : en:Chapter 01
00:12:49.268 : en:Chapter 02
00:19:17.489 : en:Chapter 03
00:24:46.401 : en:Chapter 04
00:30:23.363 : en:Chapter 05
00:37:57.858 : en:Chapter 06
00:45:03.242 : en:Chapter 07
00:53:40.133 : en:Chapter 08
01:00:12.692 : en:Chapter 09
01:07:01.851 : en:Chapter 10
01:11:03.425 : en:Chapter 11
01:16:32.963 : en:Chapter 12
01:20:53.640 : en:Chapter 13
01:26:58.129 : en:Chapter 14
01:31:05.376 : en:Chapter 15
01:35:45.448 : en:Chapter 16




загрузка...
Правила, инструкции, FAQ!!!
Торрент  Добавлен [10 фев 2015, 18:23] Скачать торрент
Скачать торрент
[ Размер 55.58 КБ / Просмотров 2 ]

Статус
Проверен 
 
Размер  11.01 ГБ
Приватный: Нет (DHT включён)
.torrent скачан  258
Как залить торрент? | Как скачать Torrent? | Как смотреть и слушать онлайн?  


     Отправить личное сообщение
   
Страница 1 из 1
Показать сообщения за:  Поле сортировки  
Начать новую тему Ответить на тему

   Похожие торренты   Автор   Ответы   Просмотры   Последнее сообщение 
В этой теме нет новых непрочитанных сообщений. Скачать торрент Черный ястреб / Падение Черного ястреба / Black Hawk Down (2001) HDRip

в форуме Боевики, Размер: 1.45 ГБ, Здоровье: 0%

Anonymous

0
0|0

36
0

30 дек 2013, 13:45

Anonymous Перейти к последнему сообщению

В этой теме нет новых непрочитанных сообщений. Скачать торрент Проверен (Heavy Metal) Hawk - Hawk - 1985, MP3 (tracks), 320 kbps

в форуме Heavy, Power, Progressive (Metal), Размер: 94.96 МБ, Здоровье: 0%

Anonymous

0
0|0

0
0

09 окт 2016, 15:39

Anonymous Перейти к последнему сообщению

В этой теме нет новых непрочитанных сообщений. Скачать торрент Проверен (Pop) Katy Hudson (Katy Perry) - Katy Hudson - 2001, FLAC (tracks+.cue) lossless

в форуме Зарубежная музыка, Размер: 337.67 МБ, Здоровье: 100%

Anonymous

0
2|1

2
0

16 авг 2016, 23:00

Anonymous Перейти к последнему сообщению

В этой теме нет новых непрочитанных сообщений. Скачать торрент Проверен (Psychedelic Progressive Metal) Tarantula Hawk - Tarantula Hawk - 1999, FLAC (tracks+.cue), lossless

в форуме Heavy, Power, Progressive (Metal), Размер: 253.1 МБ, Здоровье: ???%

Anonymous

0
0|1

1
1

11 окт 2016, 00:44

Anonymous Перейти к последнему сообщению

В этой теме нет новых непрочитанных сообщений. Скачать торрент Проверен Ракетчик / The Rocketeer (1991) BDRip 1080p | P2, A

в форуме 720p | 1080p, Размер: 7.76 ГБ, Здоровье: 91%

Гость

0
68|74

37
88

24 ноя 2014, 23:43

Гость Перейти к последнему сообщению



Сейчас этот форум просматривают: нет зарегистрированных пользователей и гости: 2


Вы не можете начинать темы
Вы не можете отвечать на сообщения
Вы не можете редактировать свои сообщения
Вы не можете удалять свои сообщения
Вы не можете добавлять вложения

Перейти:  

!ВНИМАНИЕ!
 Ресурс не предоставляет электронные версии произведений, а занимается лишь коллекционированием и каталогизацией ссылок, присылаемых и публикуемых на форуме нашими читателями. Если вы являетесь правообладателем какого-либо представленного материала и не желаете чтобы ссылка на него находилась в нашем каталоге, свяжитесь с нами и мы незамедлительно удалим её. Файлы для обмена на трекере предоставлены пользователями сайта, и администрация не несёт ответственности за их содержание. Просьба не заливать файлы, защищенные авторскими правами, а также файлы нелегального содержания!