На всех торрентах на трекере установлена скидка на скачивание в размере 100 процентов(а).
 Возможность скачивания торрента НЕ зависит от ограничений при низком ратио, низком аплоаде, требуемом ратио или требуемом аплоаде.


Начать новую тему Ответить на тему
Статистика раздачи
Размер: 9.03 ГБ | Добавлен: 07 фев 2015, 19:31 | Скачали: 0
Сидеров: 0  [0 байт/сек]    Личеров: 0  [0 байт/сек]
Пред. тема | След. тема 

Автор
Сообщение

СообщениеДобавлено: 07 фев 2015, 19:31 

Производство: Австралия / Altitude Film Entertainment, Bridle Path Films, Media House Capital
Жанр: Боевик, Драма, Криминал

Режиссер: Джулиус Эйвери
Актеры: Брентон Туэйтес, Эван МакГрегор, Алисия Викандер, Мэттью Нэйбл, Дэймон Херриман, Нэш Эдгертон, Яцек Коман, Джесси МакДжинн, Эдди Бару

Описание фильма:
Джей и красавица Наташа любят друг друга. И всё бы ничего, если бы молодая пара не поучаствовала в ограблении века и не похитила груду золота. Но главная проблема в том, что предводитель их банды — легендарный грабитель Брэндан Линч, не собирается ни с кем делиться добычей. И вовсе не хочет никого отпускать «жить счастливо». Поэтому Джей с Наташей могут либо «умереть в один день», либо придумать собственный хитроумный план со счастливым концом.

Дата мировой премьеры: 16 октября 2014
Продолжительность: 01:48:45
Качество видео: BDRip (CADAVER)
Перевод: Двухголосый закадровый, любительский
Субтитры: Вшитые отключаемые
Язык субтитров: Русский, Английский

Видео: MPEG-4 AVC/H.264, ~9,999 Kbps, 1920x800, 24 fps
Аудио 1: Русский, AC3 5.1, 384 kbps, 48 kHz (DVO, Студия Пиратского Дубляжа)
Аудио 2: Английский, DTS 5.1, 1509 kbps, 48 kHz (Original)
Общее
Полное имя : \Молодая.кровь_ Son.of.a.gun.2014.BDRip.1080p.NNM-CLUB.mkv
Формат : Matroska
Версия формата : Version 4 / Version 2
Размер файла : 9,03 Гбайт
Продолжительность : 1 ч. 48 м.
Общий поток : 11,9 Мбит/сек
Название фильма : Молодая.кровь_ Son.of.a.gun.2014.BDRip.1080p.NNM-CLUB
Дата кодирования : UTC 2010-02-22 21:41:31
Программа кодирования : mkvmerge v5.8.0 ('No Sleep / Pillow') built on Nov 13 2012 19:43:22
Библиотека кодирования : libebml v1.3.0 + libmatroska v1.4.0

Видео
Идентификатор : 1
Формат : AVC
Формат/Информация : Advanced Video Codec
Профиль формата :
Параметр CABAC формата : Да
Параметр ReFrames формата : 5 кадров
Идентификатор кодека : V_MPEG4/ISO/AVC
Продолжительность : 1 ч. 48 м.
Битрейт : 9999 Кбит/сек
Ширина : 1920 пикселей
Высота : 800 пикселей
Соотношение сторон : 2,40:1
Режим частоты кадров : Постоянный
Частота кадров : 24,000 кадра/сек
Цветовое пространство : YUV
Субдискретизация насыщенности : 4:2:0
Битовая глубина : 8 бит
Тип развёртки : Прогрессивная
Бит/(Пиксели*Кадры) : 0.271
Размер потока : 7,42 Гбайт (82%)
Заголовок : Молодая.кровь_ Son.of.a.gun.2014.BDRip.1080p.NNM-CLUB
Библиотека кодирования : x264 core 144 r2525 40bb568
Настройки программы : cabac=1 / ref=5 / deblock=1:-3:-3 / analyse=0x3:0x113 / me=umh / subme=11 / psy=1 / psy_rd=1.05:0.00 / mixed_ref=1 / me_range=36 / chroma_me=1 / trellis=2 / 8x8dct=1 / cqm=0 / deadzone=21,11 / fast_pskip=0 / chroma_qp_offset=-2 / threads=12 / lookahead_threads=3 / sliced_threads=0 / nr=0 / decimate=0 / interlaced=0 / bluray_compat=0 / constrained_intra=0 / bframes=10 / b_pyramid=2 / b_adapt=2 / b_bias=0 / direct=3 / weightb=1 / open_gop=0 / weightp=2 / keyint=250 / keyint_min=24 / scenecut=40 / intra_refresh=0 / rc=2pass / mbtree=0 / bitrate=9999 / ratetol=1.0 / qcomp=0.60 / qpmin=0 / qpmax=69 / qpstep=4 / cplxblur=20.0 / qblur=0.5 / ip_ratio=1.40 / pb_ratio=1.30 / aq=1:0.60
Язык : English
Default : Да
Forced : Нет

Аудио #1
Идентификатор : 2
Формат : AC-3
Формат/Информация : Audio Coding 3
Расширение режима : CM (complete main)
Параметр Endianness формата : Big
Идентификатор кодека : A_AC3
Продолжительность : 1 ч. 48 м.
Вид битрейта : Постоянный
Битрейт : 384 Кбит/сек
Каналы : 6 каналов
Расположение каналов : Front: L C R, Side: L R, LFE
Частота : 48,0 КГц
Битовая глубина : 16 бит
Метод сжатия : С потерями
Размер потока : 299 Мбайт (3%)
Заголовок : DVO
Язык : Russian
Default : Да
Forced : Нет

Аудио #2
Идентификатор : 3
Формат : DTS
Формат/Информация : Digital Theater Systems
Режим : 16
Параметр Endianness формата : Big
Идентификатор кодека : A_DTS
Продолжительность : 1 ч. 48 м.
Вид битрейта : Постоянный
Битрейт : 1509 Кбит/сек
Каналы : 6 каналов
Расположение каналов : Front: L C R, Side: L R, LFE
Частота : 48,0 КГц
Битовая глубина : 24 бит
Метод сжатия : С потерями
Размер потока : 1,15 Гбайт (13%)
Заголовок : DTS 5.1
Язык : English
Default : Нет
Forced : Нет

Текст #1
Идентификатор : 4
Формат : UTF-8
Идентификатор кодека : S_TEXT/UTF8
Идентификатор кодека/Информация : UTF-8 Plain Text
Язык : Russian
Default : Нет
Forced : Нет

Текст #2
Идентификатор : 5
Формат : UTF-8
Идентификатор кодека : S_TEXT/UTF8
Идентификатор кодека/Информация : UTF-8 Plain Text
Заголовок : English
Язык : English
Default : Нет
Forced : Нет

Текст #3
Идентификатор : 6
Формат : UTF-8
Идентификатор кодека : S_TEXT/UTF8
Идентификатор кодека/Информация : UTF-8 Plain Text
Заголовок : English (SDH)
Язык : English
Default : Нет
Forced : Нет

Меню
00:00:00.000 : en:00:00:00.000
00:10:25.250 : en:00:10:25.250
00:19:50.458 : en:00:19:50.458
00:30:29.875 : en:00:30:29.875
00:39:49.167 : en:00:39:49.167
00:50:06.792 : en:00:50:06.792
00:59:41.875 : en:00:59:41.875
01:10:45.000 : en:01:10:45.000
01:19:52.292 : en:01:19:52.292
01:29:59.958 : en:01:29:59.958
01:36:16.625 : en:01:36:16.625
01:43:17.750 : en:01:43:17.750
Скриншоты:
загрузка...
Правила, инструкции, FAQ!!!
Торрент  Добавлен [07 фев 2015, 19:31] Скачать торрент
Скачать торрент
[ Размер 45.9 КБ / Просмотров 5 ]

Статус
Проверен 
 
Размер  9.03 ГБ
Приватный: Нет (DHT включён)
.torrent скачан  0
Как залить торрент? | Как скачать Torrent? | Как смотреть и слушать онлайн?  


     Отправить личное сообщение
   
Страница 1 из 1
Показать сообщения за:  Поле сортировки  
Начать новую тему Ответить на тему

   Похожие торренты   Автор   Ответы   Просмотры   Последнее сообщение 
В этой теме нет новых непрочитанных сообщений. Скачать торрент Злая кровь / Wicked blood (2014) BDRip 1080p | L1

в форуме 720p | 1080p, Размер: 6.68 ГБ, Здоровье: 0%

Anonymous

0
0|0

37
0

02 мар 2014, 08:36

Anonymous Перейти к последнему сообщению

В этой теме нет новых непрочитанных сообщений. Скачать торрент Проверен Кузнецов А. (редактор) - Кровь за кровь. Сборник романов [1992, DjVu, RUS]

в форуме Детективы и Боевики, Размер: 4.93 МБ, Здоровье: 0%

Anonymous

0
0|0

4
0

08 сен 2016, 20:53

Anonymous Перейти к последнему сообщению

В этой теме нет новых непрочитанных сообщений. Скачать торрент Проверен Ильин Андрей - Кровь за Кровь [Геннадий Коршунов, (ЛИ) 2011 г., 160 kbps, MP3]

в форуме Российская фантастика, фэнтези, мистика, ужасы, фанфики, Размер: 66.12 МБ, Здоровье: 0%

Anonymous

0
0|0

0
0

Вчера, 17:00

Anonymous Перейти к последнему сообщению

В этой теме нет новых непрочитанных сообщений. Скачать торрент Молодая Виктория / The Young Victoria (Жан-Марк Валли / Jean-Marc Vallée) [2009, США, Великобритания, драма, мелодрама, биография, история, BDRip 720p, AVC] Dub

в форуме 720p | 1080p, Размер: 4.9 ГБ, Здоровье: 0%

Anonymous

0
0|0

46
0

25 фев 2014, 22:42

Anonymous Перейти к последнему сообщению

В этой теме нет новых непрочитанных сообщений. Скачать торрент Проверен L'Arc-en-Ciel - live 2014 at Kokuritsu Kyogijo [2014, Rock, BDRip 1080p]

в форуме Концерты (HD-Video), Размер: 8.06 ГБ, Здоровье: 100%

Anonymous

0
58|13

202
13

29 апр 2015, 19:29

Anonymous Перейти к последнему сообщению



Сейчас этот форум просматривают: нет зарегистрированных пользователей и гости: 6


Вы не можете начинать темы
Вы не можете отвечать на сообщения
Вы не можете редактировать свои сообщения
Вы не можете удалять свои сообщения
Вы не можете добавлять вложения

Перейти:  

!ВНИМАНИЕ!
 Ресурс не предоставляет электронные версии произведений, а занимается лишь коллекционированием и каталогизацией ссылок, присылаемых и публикуемых на форуме нашими читателями. Если вы являетесь правообладателем какого-либо представленного материала и не желаете чтобы ссылка на него находилась в нашем каталоге, свяжитесь с нами и мы незамедлительно удалим её. Файлы для обмена на трекере предоставлены пользователями сайта, и администрация не несёт ответственности за их содержание. Просьба не заливать файлы, защищенные авторскими правами, а также файлы нелегального содержания!