На всех торрентах на трекере установлена скидка на скачивание в размере 100 процентов(а).
 Возможность скачивания торрента НЕ зависит от ограничений при низком ратио, низком аплоаде, требуемом ратио или требуемом аплоаде.


Начать новую тему Ответить на тему
Статистика раздачи
Размер: 8.63 ГБ | Добавлен: 07 фев 2015, 17:33 | Скачали: 374
Сидеров: 40  [0 байт/сек]    Личеров: 0  [0 байт/сек]
Пред. тема | След. тема 

Автор
Сообщение

СообщениеДобавлено: 07 фев 2015, 17:33 

Год выпуска: 2000
Страна: США
Жанр: драма, биография
Продолжительность: 02:08:48
Перевод: Профессиональный (дублированный)
Субтитры: Russian (UTF-8), English (UTF-8)

Режиссер: Джордж Тиллман мл.


В ролях: Роберт Де Ниро / Robert De Niro (Master Chief Billy Sunday), Кьюба Гудинг мл. / Cuba Gooding Jr. (Chief Carl Brashear, $ 1 500 000 ), Шарлиз Терон / Charlize Theron (Gwen Sunday), Онжаню Эллис / Aunjanue Ellis (Jo), Хэл Холбрук / Hal Holbrook («Mr. Pappy»), Майкл Рапапорт / Michael Rapaport (GM1 Snowhill), Пауэрс Бут / Powers Boothe (Captain Pullman), Дэвид Кит / David Keith (Captain Hartigan), Холт МакКэллани / Holt McCallany (MM1 Dylan Rourke), Дэвид Конрад / David Conrad (Lt. / Cmdr. / Capt. Hanks)

Описание: Фильм основан на реальных событиях из жизни легендарного водолаза Карла Брашира. Его наставник и старший офицер Билл Сандэй убежден, что неграм нечего делать во флоте, и самыми жестокими и бесчеловечными способами издевается и «обламывает» амбициозного новичка.Однако ему это не удается, и более того, вскоре он начинает испытывать симпатию к этому чрезвычайно упертому парню, который скорее погибнет, чем покажет слабость. Вместе они пытаются сопротивляться бюрократам из командования ВМФ, которых не устраивает цвет кожи героя.Карл всегда вызывается добровольцем на выполнение самых опасных секретных спецопераций, связанных с повышенным риском для жизни. Однако судьба приготовила ему куда более страшное испытание, преодолеть которое способен только настоящий герой.


Рейтинг MPAA: Лицам до 17 лет обязательно присутствие взрослого
Рейтинг ВКИП: для детей старше 12 лет



Качество: BDRip
Формат: MKV
Видео кодек: H.264 (AVC)
Аудио кодеk: AC3
Видео: 1916x820 (2.35:1), 23.976 fps, AVC, 8 502 Kbps
Аудио: Аудио #1: AC3, 448 Kbps, 48.0 KHz, 6 ch RUS Dub
Аудио #2: AC3, 448 Kbps, 48.0 KHz, 6 ch ENG

48 kHz, AC3 Dolby Digital, 3/2 (L,C,R,l,r) + LFE ch, ~448.00 kbps avg (AVO)С.Визгунов

x264 [info]: frame I:1656 Avg QP:19.18 size:115474
x264 [info]: frame P:34981 Avg QP:20.12 size: 68498
x264 [info]: frame B:148649 Avg QP:20.79 size: 39070
encoded 185286 frames, 3.47 fps, 8690.53 kb/s
******************************************************
General
Unique ID : 242309716682829550982467837044376193957 (0xB64B276723E5897EADD22EB1FD27CBA5)
Complete name : Men of Honor 2000 1080p.F-HD .mkv
Format : Matroska
Format version : Version 4 / Version 2
File size : 8.63 GiB
Duration : 2h 8mn
Overall bit rate : 9 589 Kbps
Encoded date : UTC 2013-07-15 07:31:36
Writing application : mkvmerge v6.2.0 ('Promised Land') built on Apr 28 2013 12:22:01
Writing library : libebml v1.3.0 + libmatroska v1.4.0

Video
ID : 1
Format : AVC
Format/Info : Advanced Video Codec
Format profile : High@L4.1
Format settings, CABAC : Yes
Format settings, ReFrames : 4 frames
Codec ID : V_MPEG4/ISO/AVC
Duration : 2h 8mn
Bit rate : 8 502 Kbps
Width : 1 916 pixels
Height : 820 pixels
Display aspect ratio : 2.35:1
Frame rate mode : Constant
Frame rate : 23.976 fps
Color space : YUV
Chroma subsampling : 4:2:0
Bit depth : 8 bits
Scan type : Progressive
Bits/(Pixel*Frame) : 0.226
Stream size : 7.65 GiB (89%)
Writing library : x264 core 130 r2273 b3065e6
Encoding settings : cabac=1 / ref=4 / deblock=1:-3:-3 / analyse=0x3:0x113 / me=umh / subme=10 / psy=1 / psy_rd=1.20:0.00 / mixed_ref=1 / me_range=64 / chroma_me=1 / trellis=2 / 8x8dct=1 / cqm=0 / deadzone=21,11 / fast_pskip=0 / chroma_qp_offset=-4 / threads=6 / lookahead_threads=2 / sliced_threads=0 / nr=0 / decimate=0 / interlaced=0 / bluray_compat=0 / constrained_intra=0 / bframes=7 / b_pyramid=2 / b_adapt=2 / b_bias=0 / direct=3 / weightb=1 / open_gop=0 / weightp=2 / keyint=250 / keyint_min=25 / scenecut=30 / intra_refresh=0 / rc_lookahead=30 / rc=crf / mbtree=0 / crf=20.0 / qcomp=0.75 / qpmin=0 / qpmax=40 / qpstep=4 / vbv_maxrate=65000 / vbv_bufsize=65000 / crf_max=0.0 / nal_hrd=none / ip_ratio=1.20 / pb_ratio=1.10 / aq=1:0.60
Language : English
Default : Yes
Forced : No
Color primaries : BT.709
Transfer characteristics : BT.709
Matrix coefficients : BT.709

Audio #1
ID : 2
Format : AC-3
Format/Info : Audio Coding 3
Mode extension : CM (complete main)
Format settings, Endianness : Big
Codec ID : A_AC3
Duration : 2h 8mn
Bit rate mode : Constant
Bit rate : 448 Kbps
Channel(s) : 6 channels
Channel positions : Front: L C R, Side: L R, LFE
Sampling rate : 48.0 KHz
Bit depth : 16 bits
Compression mode : Lossy
Stream size : 413 MiB (5%)
Language : Russian
Default : Yes
Forced : No

Audio #2
ID : 3
Format : AC-3
Format/Info : Audio Coding 3
Mode extension : CM (complete main)
Format settings, Endianness : Big
Codec ID : A_AC3
Duration : 2h 8mn
Bit rate mode : Constant
Bit rate : 448 Kbps
Channel(s) : 6 channels
Channel positions : Front: L C R, Side: L R, LFE
Sampling rate : 48.0 KHz
Bit depth : 16 bits
Compression mode : Lossy
Stream size : 413 MiB (5%)
Language : English
Default : No
Forced : No

Text #1
ID : 4
Format : UTF-8
Codec ID : S_TEXT/UTF8
Codec ID/Info : UTF-8 Plain Text
Language : Russian
Default : No
Forced : No

Text #2
ID : 5
Format : UTF-8
Codec ID : S_TEXT/UTF8
Codec ID/Info : UTF-8 Plain Text
Language : English
Default : No
Forced : No

Menu #1
00:00:00.000 : en:Opening Credits/"Don't End Up Like Me"
00:07:31.534 : en:Big Future in the U.S. Navy
00:14:51.599 : en:Master Chief Sunday
00:21:40.299 : en:Beware What You Wish For
00:27:09.670 : en:Welcoming Boatswain's Mate Brashear
00:36:03.286 : en:Passing the Test
00:42:32.550 : en:Salvage and Rescue
00:49:09.572 : en:Bad News
00:54:16.462 : en:The Bet
01:04:24.944 : en:Be The Best
01:10:44.365 : en:Against All Odds
01:19:32.017 : en:Happy New Year
01:25:00.721 : en:Missile Rescue
01:31:57.679 : en:Never Gonna Dive Again
01:41:48.311 : en:To Be A Master Diver
01:48:11.235 : en:Trial of Honor
01:55:17.744 : en:Twelve Steps
02:02:24.337 : en:End Credits








Релиз от:
загрузка...
Правила, инструкции, FAQ!!!
Торрент  Добавлен [07 фев 2015, 17:33] Скачать торрент
Скачать торрент
[ Размер 43.69 КБ / Просмотров 9 ]

Статус
Проверен 
 
Размер  8.63 ГБ
Приватный: Нет (DHT включён)
.torrent скачан  374
Как залить торрент? | Как скачать Torrent? | Как смотреть и слушать онлайн?  


     Отправить личное сообщение
   
Страница 1 из 1
Показать сообщения за:  Поле сортировки  
Начать новую тему Ответить на тему

   Похожие торренты   Автор   Ответы   Просмотры   Последнее сообщение 
В этой теме нет новых непрочитанных сообщений. Скачать торрент Проверен Военный ныряльщик / Men of Honor (2000) BDRip | Лицензия

в форуме Драмы, Мелодрамы, Размер: 1.45 ГБ, Здоровье: 100%

Anonymous

0
98|6

77
53

07 фев 2015, 17:31

Anonymous Перейти к последнему сообщению

В этой теме нет новых непрочитанных сообщений. Скачать торрент Проверен [iPad] Военный ныряльщик / Men of Honor (Джордж Тиллман мл. / George Tillman Jr.) [2000, Драма, биография, BDRip]

в форуме Фильмы для iPod, iPhone, iPad, Размер: 3.62 ГБ, Здоровье: 100%

Гость

0
21|3

46
1

11 май 2015, 01:24

Гость Перейти к последнему сообщению

В этой теме нет новых непрочитанных сообщений. Скачать торрент Проверен [iPhone] Военный ныряльщик / Men of Honor (Джордж Тиллман мл./ George Tillman Jr.) [2000 г., Драма, Биография][Rus/Eng/Esp, Sub,+ Dub/ Eng., оригинал., HDRip - AVC., 720x320]

в форуме Фильмы для iPod, iPhone, iPad, Размер: 1.42 ГБ, Здоровье: 100%

Гость

0
5|1

60
0

18 май 2015, 10:53

Гость Перейти к последнему сообщению

В этой теме нет новых непрочитанных сообщений. Скачать торрент Подводная лодка Ю-571 / U-571 (Джонатан Мостоу / Jonathan Mostow) [2000 г., боевик, драма, военный, BDRip 1080p]

в форуме 720p | 1080p, Размер: 10.29 ГБ, Здоровье: 100%

Anonymous

0
8|2

48
0

25 фев 2014, 22:40

Anonymous Перейти к последнему сообщению

В этой теме нет новых непрочитанных сообщений. Скачать торрент Проверен Август. Восьмого (Джаник Файзиев) [2012 г., Россия, драма, военный, BDRip 1080p]

в форуме Наше кино (HD Video), Размер: 8.91 ГБ, Здоровье: 100%

Anonymous

0
27|9

26
0

12 апр 2015, 15:06

Anonymous Перейти к последнему сообщению



Сейчас этот форум просматривают: нет зарегистрированных пользователей и гости: 2


Вы не можете начинать темы
Вы не можете отвечать на сообщения
Вы не можете редактировать свои сообщения
Вы не можете удалять свои сообщения
Вы не можете добавлять вложения

Перейти:  

!ВНИМАНИЕ!
 Ресурс не предоставляет электронные версии произведений, а занимается лишь коллекционированием и каталогизацией ссылок, присылаемых и публикуемых на форуме нашими читателями. Если вы являетесь правообладателем какого-либо представленного материала и не желаете чтобы ссылка на него находилась в нашем каталоге, свяжитесь с нами и мы незамедлительно удалим её. Файлы для обмена на трекере предоставлены пользователями сайта, и администрация не несёт ответственности за их содержание. Просьба не заливать файлы, защищенные авторскими правами, а также файлы нелегального содержания!