На всех торрентах на трекере установлена скидка на скачивание в размере 100 процентов(а).
 Возможность скачивания торрента НЕ зависит от ограничений при низком ратио, низком аплоаде, требуемом ратио или требуемом аплоаде.


Начать новую тему Ответить на тему
Статистика раздачи
Размер: 7.91 ГБ | Добавлен: 06 фев 2015, 22:07 | Скачали: 271
Сидеров: 42  [0 байт/сек]    Личеров: 3  [0 байт/сек]
Пред. тема | След. тема 

Автор
Сообщение

СообщениеДобавлено: 06 фев 2015, 22:07 

Название: Наркоз
Оригинальное название: Awake
Год выхода: 2007
Слоган: «Каждый год 21 миллион человек оперируются под наркозом. Один из 700 остается в сознании. Когда они планировали убийство ее мужа, они не думали, что он один из них.»
Жанр: триллер, драма
Режиссер: Джоби Харольд
В ролях: Хейден Кристенсен, Джессика Альба, Терренс Ховард, Лена Улин, Кристофер МакДональд, Сэм Робардс, Арлисс Ховард, Фишер Стивенс, Джорджина Чэпман, Дэвид Харбор

О фильме: Главный действующий персонаж в исполнении Кристенсена вынужден лечь под нож. Однако в процессе операции на сердце он неожиданно приходит в себя. Находясь в парализованном состоянии, будучи не в силах пошевелить ни рукой, ни ногой, он, тем не менее, чувствует каждое касание скальпеля к своей плоти. А в это время в голове его жены происходит ужасная борьба с ее собственными страхами.


Страна: США
Студия: GreeneStreet Films Inc.
Время: 01:24:05
Перевод: Профессиональный (дублированный)


Кодек: H.264
Качество: BDRip
Видео: 1920х816, 10.6 kbps, 23 fps
Аудио #1: DTS, 6 ch, 768 kbps | Русский
Аудио #2: DTS, 6 ch, 1536 kbps | Оригинал

Скриншоты


Общее
Уникальный идентификатор : 253524717404599076345262676910608256091 (0xBEBB15A115458025A847CA9BEFC48C5B)
Полное имя : Narkoz.2007.BDRip.1080p.mkv
Формат : Matroska
Версия формата : Version 2
Размер файла : 7,91 Гбайт
Продолжительность : 1 ч. 24 м.
Общий поток : 13,5 Мбит/сек
Название фильма : Наркоз (2007)
Дата кодирования : UTC 2012-01-20 14:50:11
Программа кодирования : mkvmerge v5.2.0 ('I can't explain') built on Dec 18 2011 18:12:03
Библиотека кодирования : libebml v1.2.3 + libmatroska v1.3.0

Видео
Идентификатор : 1
Формат : AVC
Формат/Информация : Advanced Video Codec
Профиль формата : High@L5.0
Параметр CABAC формата : Да
Параметр ReFrames формата : 6 кадров
Режим смешивания : Header stripping
Идентификатор кодека : V_MPEG4/ISO/AVC
Продолжительность : 1 ч. 24 м.
Битрейт : 11,2 Мбит/сек
Ширина : 1920 пикселей
Высота : 816 пикселей
Соотношение сторон : 2,35:1
Частота кадров : 23,976 кадра/сек
Цветовое пространство : YUV
Субдискретизация насыщенности : 4:2:0
Битовая глубина : 8 бит
Тип развёртки : Прогрессивная
Бит/(Пиксели*Кадры) : 0.298
Размер потока : 6,42 Гбайт (81%)
Библиотека кодирования : x264 core 65 r999kMod cc51047
Настройки программы : cabac=1 / ref=6 / deblock=1:0:0 / analyse=0x3:0x133 / me=esa / subme=7 / psy_rd=1.0:0.0 / mixed_ref=1 / me_range=10 / chroma_me=1 / trellis=2 / 8x8dct=1 / cqm=0 / deadzone=21,11 / chroma_qp_offset=-2 / threads=2 / thread_queue=2 / nr=0 / decimate=1 / mbaff=0 / bframes=7 / b_pyramid=0 / b_adapt=1 / b_bias=0 / direct=0 / wpredb=0 / keyint=250 / keyint_min=25 / scenecut=40(pre) / rc=2pass / bitrate=11200 / ratetol=1.0 / qcomp=0.60 / qpmin=10 / qpmax=51 / qpstep=4 / cplxblur=20.0 / qblur=0.5 / ip_ratio=1.40 / pb_ratio=1.30 / aq=1:1.00

Аудио #1
Идентификатор : 2
Формат : DTS
Формат/Информация : Digital Theater Systems
Режим смешивания : Header stripping
Идентификатор кодека : A_DTS
Продолжительность : 1 ч. 24 м.
Вид битрейта : Постоянный
Битрейт : 755 Кбит/сек
Каналы : 6 каналов
Расположение каналов : Front: L C R, Side: L R, LFE
Частота : 48,0 КГц
Битовая глубина : 24 бит
Метод сжатия : С потерями
Размер потока : 454 Мбайт (6%)
Заголовок : Русский (DTS, 6 ch, 768 Кбит/с)
Язык : Russian

Аудио #2
Идентификатор : 3
Формат : DTS
Формат/Информация : Digital Theater Systems
Режим смешивания : Header stripping
Идентификатор кодека : A_DTS
Продолжительность : 1 ч. 24 м.
Вид битрейта : Постоянный
Битрейт : 1510 Кбит/сек
Каналы : 6 каналов
Расположение каналов : Front: L C R, Side: L R, LFE
Частота : 48,0 КГц
Битовая глубина : 24 бит
Метод сжатия : С потерями
Размер потока : 908 Мбайт (11%)
Заголовок : английский(DTS, 6 ch, 1536 Кбит/с)
загрузка...
Правила, инструкции, FAQ!!!
Торрент  Добавлен [06 фев 2015, 22:07] Скачать торрент
Скачать торрент
[ Размер 20.36 КБ / Просмотров 9 ]

Статус
Проверен 
 
Размер  7.91 ГБ
Приватный: Нет (DHT включён)
.torrent скачан  271
Как залить торрент? | Как скачать Torrent? | Как смотреть и слушать онлайн?  


     Отправить личное сообщение
   
Страница 1 из 1
Показать сообщения за:  Поле сортировки  
Начать новую тему Ответить на тему

   Похожие торренты   Автор   Ответы   Просмотры   Последнее сообщение 
В этой теме нет новых непрочитанных сообщений. Скачать торрент Проверен Наркоз / Awake (2007) BDRip 720p от Leonardo and Scarabey

в форуме 720p | 1080p, Размер: 3.47 ГБ, Здоровье: 100%

Anonymous

0
43|2

23
770

05 авг 2014, 06:28

Anonymous Перейти к последнему сообщению

В этой теме нет новых непрочитанных сообщений. Скачать торрент Наркоз / Awake (Джоби Харольд / Joby Harold) [2007 г., триллер, драма, мелодрама, криминал, BDRip-AVC] Dub

в форуме Триллеры, Размер: 1.56 ГБ, Здоровье: 100%

Anonymous

0
56|19

38
0

15 апр 2014, 08:19

Anonymous Перейти к последнему сообщению

В этой теме нет новых непрочитанных сообщений. Скачать торрент Проверен (Progressive Metal) Awake - Illumination - 2007, APE (image+.cue), lossless

в форуме Heavy, Power, Progressive (Metal), Размер: 351.68 МБ, Здоровье: 0%

Anonymous

0
0|0

2
0

10 окт 2016, 23:56

Anonymous Перейти к последнему сообщению

В этой теме нет новых непрочитанных сообщений. Скачать торрент Проверен (Progressive Metal) Awake - Illumination - 2007, MP3 (tracks), VBR 192-320 kbps

в форуме Heavy, Power, Progressive (Metal), Размер: 80.86 МБ, Здоровье: 0%

Anonymous

0
0|0

2
0

09 окт 2016, 13:08

Anonymous Перейти к последнему сообщению

В этой теме нет новых непрочитанных сообщений. Скачать торрент Проверен (Techno, Experimental) VA - Rude And Awake Vol. 1 (FE 06) - (96khz / 24 bit) - Vinyl - 2007, FLAC (tracks), lossless

в форуме Электронная музыка (оцифровки), Размер: 311.78 МБ, Здоровье: 0%

Anonymous

0
0|0

0
0

14 сен 2016, 21:05

Anonymous Перейти к последнему сообщению



Сейчас этот форум просматривают: нет зарегистрированных пользователей и гости: 1


Вы не можете начинать темы
Вы не можете отвечать на сообщения
Вы не можете редактировать свои сообщения
Вы не можете удалять свои сообщения
Вы не можете добавлять вложения

Перейти:  

!ВНИМАНИЕ!
 Ресурс не предоставляет электронные версии произведений, а занимается лишь коллекционированием и каталогизацией ссылок, присылаемых и публикуемых на форуме нашими читателями. Если вы являетесь правообладателем какого-либо представленного материала и не желаете чтобы ссылка на него находилась в нашем каталоге, свяжитесь с нами и мы незамедлительно удалим её. Файлы для обмена на трекере предоставлены пользователями сайта, и администрация не несёт ответственности за их содержание. Просьба не заливать файлы, защищенные авторскими правами, а также файлы нелегального содержания!