На всех торрентах на трекере установлена скидка на скачивание в размере 100 процентов(а).
 Возможность скачивания торрента НЕ зависит от ограничений при низком ратио, низком аплоаде, требуемом ратио или требуемом аплоаде.


Начать новую тему Ответить на тему
Статистика раздачи
Размер: 3.25 ГБ | Добавлен: 05 фев 2015, 20:57 | Скачали: 14814
Сидеров: 650  [0 байт/сек]    Личеров: 26  [0 байт/сек]
Пред. тема | След. тема 

Автор
Сообщение

СообщениеДобавлено: 05 фев 2015, 20:57 

Название: Район 37
Оригинальное название: Outpost 37
Год выхода: 2014
Жанр: фантастика, боевик, триллер
Режиссер: Джаббар Райсани
В ролях: Эдриан Пол, Рик Раванелло, Рейли МакКлендон, Дуглас Тейт, Джо Риган, Мэттью Холмс, Эндрю Дэволи, Свен Райгрок, Брэндон Оре, Николас Расенти

О фильме: Исследуя события инопланетного вторжения, команда документалистов следует за элитным подразделением морских пехотинцев.



Выпущено: Великобритания, ЮАР
Продолжительность: 01:32:20
Озвучивание: Любительское (двухголосое)


Формат: MKV (x264)
Качество: WEB-DL 720p
Видео: 4178 kb/s, 1280x688
Аудио: Russian: AC3, 384 kb/s (2 ch) / English: AC3, 384 kb/s (6 ch)
Субтитры: English





Format : Matroska
Format version : Version 4 / Version 2
File size : 3.25 GiB
Duration : 1h 32mn
Overall bit rate : 5 046 Kbps
Encoded date : UTC 2015-02-04 18:34:26
Writing application : mkvmerge v6.9.1 ('Blue Panther') 64bit built on Apr 18 2014 18:23:38
Writing library : libebml v1.3.0 + libmatroska v1.4.1
DURATION : 01:30:42.436000000
NUMBER_OF_FRAMES : 2131
NUMBER_OF_BYTES : 81261
_STATISTICS_WRITING_APP : mkvmerge v7.3.0 ('Nouages') 64bit built on Oct 22 2014 18:53:34
_STATISTICS_WRITING_DATE_UTC : 2015-01-30 16:45:45
_STATISTICS_TAGS : BPS DURATION NUMBER_OF_FRAMES NUMBER_OF_BYTES

Video
ID : 1
Format : AVC
Format/Info : Advanced Video Codec
Format profile : High@L3.1
Format settings, CABAC : No
Format settings, ReFrames : 2 frames
Codec ID : V_MPEG4/ISO/AVC
Duration : 1h 32mn
Bit rate : 4 178 Kbps
Width : 1 280 pixels
Height : 688 pixels
Display aspect ratio : 1.85:1
Frame rate : 23.976 fps
Color space : YUV
Chroma subsampling : 4:2:0
Bit depth : 8 bits
Scan type : Progressive
Bits/(Pixel*Frame) : 0.198
Stream size : 2.69 GiB (83%)
Language : English
Default : Yes
Forced : No
Color primaries : BT.709-5, BT.1361, IEC 61966-2-4, SMPTE RP177
Transfer characteristics : BT.709-5, BT.1361
Matrix coefficients : BT.709-5, BT.1361, IEC 61966-2-4 709, SMPTE RP177

Audio #1
ID : 2
Format : AC-3
Format/Info : Audio Coding 3
Mode extension : CM (complete main)
Format settings, Endianness : Big
Codec ID : A_AC3
Duration : 1h 32mn
Bit rate mode : Constant
Bit rate : 384 Kbps
Channel(s) : 2 channels
Channel positions : Front: L R
Sampling rate : 48.0 KHz
Bit depth : 16 bits
Compression mode : Lossy
Stream size : 254 MiB (8%)
Default : Yes
Forced : No

Audio #2
ID : 3
Format : AC-3
Format/Info : Audio Coding 3
Mode extension : CM (complete main)
Format settings, Endianness : Big
Codec ID : A_AC3
Duration : 1h 32mn
Bit rate mode : Constant
Bit rate : 384 Kbps
Channel(s) : 6 channels
Channel positions : Front: L C R, Side: L R, LFE
Sampling rate : 48.0 KHz
Bit depth : 16 bits
Compression mode : Lossy
Stream size : 254 MiB (8%)
Language : English
Default : No
Forced : No

Text #1
ID : 4
Format : UTF-8
Codec ID : S_TEXT/UTF8
Codec ID/Info : UTF-8 Plain Text
Language : English
Default : No
Forced : No

Text #2
ID : 5
Format : UTF-8
Codec ID : S_TEXT/UTF8
Codec ID/Info : UTF-8 Plain Text
Default : Yes
Forced : No

Menu
00:00:00.000 : en:1
00:14:48.000 : en:2
00:26:19.000 : en:3
00:37:41.000 : en:4
00:49:57.000 : en:5
01:01:14.000 : en:6
01:11:40.000 : en:7
01:25:31.000 : en:8
загрузка...
Правила, инструкции, FAQ!!!
Торрент  Добавлен [05 фев 2015, 20:57] Скачать торрент
Скачать торрент
[ Размер 4.58 КБ / Просмотров 7 ]

Статус
Проверен 
 
Размер  3.25 ГБ
Приватный: Нет (DHT включён)
.torrent скачан  14814
Как залить торрент? | Как скачать Torrent? | Как смотреть и слушать онлайн?  


     Отправить личное сообщение
   
Страница 1 из 1
Показать сообщения за:  Поле сортировки  
Начать новую тему Ответить на тему

   Похожие торренты   Автор   Ответы   Просмотры   Последнее сообщение 
В этой теме нет новых непрочитанных сообщений. Скачать торрент Проверен Район 37 / Outpost 37 (2014) WEB-DLRip | L2

в форуме Фантастика, Фэнтези, Размер: 1.37 ГБ, Здоровье: 100%

Гость

0
319|5

79
110

05 фев 2015, 20:55

Гость Перейти к последнему сообщению

В этой теме нет новых непрочитанных сообщений. Скачать торрент Проверен 13-й район: Кирпичные особняки / Brick Mansions (2014) BDRip 720p | Чистый звук

в форуме 720p | 1080p, Размер: 2.19 ГБ, Здоровье: 0%

Anonymous

0
0|0

53
0

18 авг 2014, 10:12

Anonymous Перейти к последнему сообщению

В этой теме нет новых непрочитанных сообщений. Скачать торрент Проверен 13-й район: Кирпичные особняки / Brick Mansions (2014) BDRip 720p | Чистый звук

в форуме Боевики, Размер: 4.84 ГБ, Здоровье: 100%

Anonymous

0
434|34

53
8510

17 авг 2014, 20:38

Anonymous Перейти к последнему сообщению

В этой теме нет новых непрочитанных сообщений. Скачать торрент Проверен (Rock) 9-й район (Девятый район) - Дискография [1992-2007], MP3, 128-320 kbps

в форуме Русский Рок, Размер: 844.13 МБ, Здоровье: 100%

Anonymous

0
47|11

31
3

23 авг 2016, 11:07

Anonymous Перейти к последнему сообщению

В этой теме нет новых непрочитанных сообщений. Скачать торрент Проверен Район №9 / District 9 (2009) BDRip 720p

в форуме 720p | 1080p, Размер: 5.23 ГБ, Здоровье: 100%

Гость

0
114|47

35
203

31 дек 2014, 15:29

Гость Перейти к последнему сообщению



Сейчас этот форум просматривают: нет зарегистрированных пользователей и гости: 4


Вы не можете начинать темы
Вы не можете отвечать на сообщения
Вы не можете редактировать свои сообщения
Вы не можете удалять свои сообщения
Вы не можете добавлять вложения

Перейти:  

!ВНИМАНИЕ!
 Ресурс не предоставляет электронные версии произведений, а занимается лишь коллекционированием и каталогизацией ссылок, присылаемых и публикуемых на форуме нашими читателями. Если вы являетесь правообладателем какого-либо представленного материала и не желаете чтобы ссылка на него находилась в нашем каталоге, свяжитесь с нами и мы незамедлительно удалим её. Файлы для обмена на трекере предоставлены пользователями сайта, и администрация не несёт ответственности за их содержание. Просьба не заливать файлы, защищенные авторскими правами, а также файлы нелегального содержания!