На всех торрентах на трекере установлена скидка на скачивание в размере 100 процентов(а).
 Возможность скачивания торрента НЕ зависит от ограничений при низком ратио, низком аплоаде, требуемом ратио или требуемом аплоаде.


Начать новую тему Ответить на тему
Статистика раздачи
Размер: 8.69 ГБ | Добавлен: 05 фев 2015, 20:25 | Скачали: 0
Сидеров: 0  [0 байт/сек]    Личеров: 0  [0 байт/сек]
Пред. тема | След. тема 

Автор
Сообщение

СообщениеДобавлено: 05 фев 2015, 20:25 

Производство: USA / Film Department, The, Gerard Butler Alan Siegel Entertainment, Warp Films
Жанр: триллер, драма, криминал

Режиссер: Ф. Гэри Грей
Актеры: Джейми Фокс, Джерард Батлер, Колм Мини, Брюс МакГилл, Лесли Бибб, Майкл Ирби, Грегори Итцин, Реджина Холл, Эмиральд Янг, Кристиан Столте

Описание фильма: Окружной прокурор пошёл на сделку с преступниками и освободил их из тюрьмы. Тогда человек, чья жена и ребёнок погибли от рук убийц решает отомстить прокурору, совершив правосудие самостоятельно. Его ловят и сажают в тюрьму, но он неожиданно ставит ультиматум: он будет убивать, не выходя из-за решетки, если его требования не будут выполнены. Смешное заявление, но вскоре люди правда начинают гибнуть…

Рейтинг MPAA: R - Детям до 17 лет обязательно присутствие родителей
Продолжительность: 01:58:06
Качество: BDRip (720p)

Перевод: профессиональный (полное дублирование), профессиональный (многоголосый закадровый), авторский (одноголосый закадровый)
Вид субтитров: вшитые, отключаемые
Язык субтитров: русские (Full), русские (на непереведённые фразы), украинские (на непереведённые фразы), английские (Full)

Видео: MPEG-4 AVC/H.264, 1280 x 534 (2,40:1), 6 574 kbps, 23.976 fps, 0.401 b/px
Аудио # 1: AC3, 6 ch, 448 kbps, 48 000 Hz [дублированный (R5)]
Аудио # 2: AC3, 6 ch, 448 kbps, 48 000 Hz [многоголосый закадровый (Киномания)]
Аудио # 3: АС3, 6 ch, 448 kbps, 48 000 Hz [одноголосый закадровый (Ю.Сербин)]
Аудио # 4: АС3, 6 ch, 448 kbps, 48 000 Hz [одноголосый закадровый (А.Гаврилов)]
Аудио # 5: АС3, 6 ch, 448 kbps, 48 000 Hz [многоголосый закадровый (Украинский)]
Аудио # 6: DTS, 6 ch, 1509 kbps, 48 000 Hz [оригинальный]
Код:
Код:
Общее
Уникальный идентификатор                 : 177171424225624277379781978540818464672 (0x8549F9A180B437759A30B6E207A27FA0)
Полное имя                               : E:\[2009] Законопослушный гражданин [BDRip] [720p] [Unrated Director's Cut].mkv
Формат                                   : Matroska
Версия формата                           : Version 4 / Version 2
Размер файла                             : 8,69 Гбайт
Продолжительность                        : 1 ч. 58 м.
Общий поток                              : 10,5 Мбит/сек
Название фильма                          : Законопослушный гражданин / Law Abiding Citizen (2009) BDRip [720p] [Unrated Director's Cut]
Дата кодирования                         : UTC 2015-02-05 11:50:11
Программа кодирования                    : mkvmerge v7.5.0 ('Glass Culture') 32bit built on Jan  4 2015 16:37:25
Библиотека кодирования                   : libebml v1.3.1 + libmatroska v1.4.2
DURATION                                 : 01:53:48.154000000
NUMBER_OF_FRAMES                         : 1433
NUMBER_OF_BYTES                          : 51574
_STATISTICS_WRITING_APP                  : mkvmerge v7.5.0 ('Glass Culture') 32bit built on Jan  4 2015 16:37:25
_STATISTICS_WRITING_DATE_UTC             : 2015-02-05 11:50:11
_STATISTICS_TAGS                         : BPS DURATION NUMBER_OF_FRAMES NUMBER_OF_BYTES

Видео
Идентификатор                            : 1
Формат                                   : AVC
Формат/Информация                        : Advanced Video Codec
Профиль формата                          :
Параметр CABAC формата                   : Да
Параметр ReFrames формата                : 12 кадров
Идентификатор кодека                     : V_MPEG4/ISO/AVC
Продолжительность                        : 1 ч. 58 м.
Битрейт                                  : 6574 Кбит/сек
Ширина                                   : 1280 пикселей
Высота                                   : 534 пикселя
Соотношение сторон                       : 2,40:1
Соотношение сторон в оригинале           : 2,40:1
Режим частоты кадров                     : Постоянный
Частота кадров                           : 23,976 кадра/сек
Цветовое пространство                    : YUV
Субдискретизация насыщенности            : 4:2:0
Битовая глубина                          : 8 бит
Тип развёртки                            : Прогрессивная
Бит/(Пиксели*Кадры)                      : 0.401
Размер потока                            : 5,42 Гбайт (62%)
Заголовок                                : [2009] Законопослушный гражданин / Law Abiding Citizen [BDRip] [720p] [Unrated Director's Cut]
Библиотека кодирования                   : x264 core 142 r2479 dd79a61
Настройки программы                      : cabac=1 / ref=12 / deblock=1:-2:-2 / analyse=0x3:0x133 / me=umh / subme=11 / psy=1 / psy_rd=1.00:0.00 / mixed_ref=1 / me_range=32 / chroma_me=1 / trellis=2 / 8x8dct=1 / cqm=0 / deadzone=21,11 / fast_pskip=1 / chroma_qp_offset=-2 / threads=12 / lookahead_threads=3 / sliced_threads=0 / nr=0 / decimate=1 / interlaced=0 / bluray_compat=0 / constrained_intra=0 / bframes=12 / b_pyramid=2 / b_adapt=2 / b_bias=0 / direct=1 / weightb=1 / open_gop=0 / weightp=2 / keyint=250 / keyint_min=23 / scenecut=40 / intra_refresh=0 / rc_lookahead=60 / rc=crf / mbtree=0 / crf=16.5 / qcomp=0.70 / qpmin=0 / qpmax=69 / qpstep=4 / vbv_maxrate=62500 / vbv_bufsize=78125 / crf_max=0.0 / nal_hrd=none / filler=0 / ip_ratio=1.40 / pb_ratio=1.30 / aq=1:0.80
Язык                                     : English
Default                                  : Да
Forced                                   : Нет
Основные цвета                           : BT.709
Характеристики трансфера                 : BT.709
Коэффициенты матрицы                     : BT.709

Аудио #1
Идентификатор                            : 2
Формат                                   : AC-3
Формат/Информация                        : Audio Coding 3
Расширение режима                        : CM (complete main)
Параметр Endianness формата              : Big
Идентификатор кодека                     : A_AC3
Продолжительность                        : 1 ч. 58 м.
Вид битрейта                             : Постоянный
Битрейт                                  : 448 Кбит/сек
Каналы                                   : 6 каналов
Расположение каналов                     : Front: L C R, Side: L R, LFE
Частота                                  : 48,0 КГц
Битовая глубина                          : 16 бит
Метод сжатия                             : С потерями
Размер потока                            : 378 Мбайт (4%)
Заголовок                                : Дублированный (R5)
Язык                                     : Russian
Default                                  : Да
Forced                                   : Нет

Аудио #2
Идентификатор                            : 3
Формат                                   : AC-3
Формат/Информация                        : Audio Coding 3
Расширение режима                        : CM (complete main)
Параметр Endianness формата              : Big
Идентификатор кодека                     : A_AC3
Продолжительность                        : 1 ч. 58 м.
Вид битрейта                             : Постоянный
Битрейт                                  : 448 Кбит/сек
Каналы                                   : 6 каналов
Расположение каналов                     : Front: L C R, Side: L R, LFE
Частота                                  : 48,0 КГц
Битовая глубина                          : 16 бит
Метод сжатия                             : С потерями
Размер потока                            : 378 Мбайт (4%)
Заголовок                                : Многоголосый закадровый (Киномания)
Язык                                     : Russian
Default                                  : Нет
Forced                                   : Нет

Аудио #3
Идентификатор                            : 4
Формат                                   : AC-3
Формат/Информация                        : Audio Coding 3
Расширение режима                        : CM (complete main)
Параметр Endianness формата              : Big
Идентификатор кодека                     : A_AC3
Продолжительность                        : 1 ч. 58 м.
Вид битрейта                             : Постоянный
Битрейт                                  : 448 Кбит/сек
Каналы                                   : 6 каналов
Расположение каналов                     : Front: L C R, Side: L R, LFE
Частота                                  : 48,0 КГц
Битовая глубина                          : 16 бит
Метод сжатия                             : С потерями
Размер потока                            : 378 Мбайт (4%)
Заголовок                                : Одноголосый закадровый (Ю.Сербин)
Язык                                     : Russian
Default                                  : Нет
Forced                                   : Нет

Аудио #4
Идентификатор                            : 5
Формат                                   : AC-3
Формат/Информация                        : Audio Coding 3
Расширение режима                        : CM (complete main)
Параметр Endianness формата              : Big
Идентификатор кодека                     : A_AC3
Продолжительность                        : 1 ч. 58 м.
Вид битрейта                             : Постоянный
Битрейт                                  : 448 Кбит/сек
Каналы                                   : 6 каналов
Расположение каналов                     : Front: L C R, Side: L R, LFE
Частота                                  : 48,0 КГц
Битовая глубина                          : 16 бит
Метод сжатия                             : С потерями
Размер потока                            : 378 Мбайт (4%)
Заголовок                                : Одноголосый закадровый (А.Гаврилов)
Язык                                     : Russian
Default                                  : Нет
Forced                                   : Нет

Аудио #5
Идентификатор                            : 6
Формат                                   : AC-3
Формат/Информация                        : Audio Coding 3
Расширение режима                        : CM (complete main)
Параметр Endianness формата              : Big
Идентификатор кодека                     : A_AC3
Продолжительность                        : 1 ч. 58 м.
Вид битрейта                             : Постоянный
Битрейт                                  : 448 Кбит/сек
Каналы                                   : 6 каналов
Расположение каналов                     : Front: L C R, Side: L R, LFE
Частота                                  : 48,0 КГц
Битовая глубина                          : 16 бит
Метод сжатия                             : С потерями
Размер потока                            : 378 Мбайт (4%)
Заголовок                                : Многоголосый закадровый
Язык                                     : Ukrainian
Default                                  : Нет
Forced                                   : Нет

Аудио #6
Идентификатор                            : 7
Формат                                   : DTS
Формат/Информация                        : Digital Theater Systems
Режим                                    : 16
Параметр Endianness формата              : Big
Идентификатор кодека                     : A_DTS
Продолжительность                        : 1 ч. 58 м.
Вид битрейта                             : Постоянный
Битрейт                                  : 1509 Кбит/сек
Каналы                                   : 6 каналов
Расположение каналов                     : Front: L C R, Side: L R, LFE
Частота                                  : 48,0 КГц
Битовая глубина                          : 24 бит
Метод сжатия                             : С потерями
Размер потока                            : 1,24 Гбайт (14%)
Заголовок                                : Оригинальный
Язык                                     : English
Default                                  : Нет
Forced                                   : Нет

Текст #1
Идентификатор                            : 8
Формат                                   : UTF-8
Идентификатор кодека                     : S_TEXT/UTF8
Идентификатор кодека/Информация          : UTF-8 Plain Text
Заголовок                                : Russian (Full)
Язык                                     : Russian
Default                                  : Нет
Forced                                   : Нет

Текст #2
Идентификатор                            : 9
Формат                                   : UTF-8
Идентификатор кодека                     : S_TEXT/UTF8
Идентификатор кодека/Информация          : UTF-8 Plain Text
Заголовок                                : Russian (Unrated Parts)
Язык                                     : Russian
Default                                  : Да
Forced                                   : Нет

Текст #3
Идентификатор                            : 10
Формат                                   : UTF-8
Идентификатор кодека                     : S_TEXT/UTF8
Идентификатор кодека/Информация          : UTF-8 Plain Text
Заголовок                                : Ukrainian (Unrated Parts)
Язык                                     : Ukrainian
Default                                  : Нет
Forced                                   : Нет

Текст #4
Идентификатор                            : 11
Формат                                   : UTF-8
Идентификатор кодека                     : S_TEXT/UTF8
Идентификатор кодека/Информация          : UTF-8 Plain Text
Заголовок                                : English
Язык                                     : English
Default                                  : Нет
Forced                                   : Нет

Меню
00:00:00.000                             : en:Home Invasion
00:03:51.898                             : en:What You Can Prove in Court
00:11:57.467                             : en:Lethal Injection
00:20:41.740                             : en:You Can't Fight Fate
00:29:01.239                             : en:Taken Into Custody
00:39:48.094                             : en:Make the Deal
00:43:34.529                             : en:Contempt of Court
00:50:00.915                             : en:Steak with All the Trimmings
00:58:59.828                             : en:Born Tactician
01:07:36.803                             : en:This Broken Thing
01:16:41.388                             : en:It's Gonna Be Biblical
01:23:25.918                             : en:City Under Siege
01:29:52.220                             : en:Subterranean Passage
01:37:04.944                             : en:Center of Gravity
01:42:41.238                             : en:I Don't Make Deals with Murderers
01:50:46.849                             : en:End Credits
Сатурн, 2010 год

Номинации (1):

*** Лучший приключенческий фильм, боевик или триллер
*** Режиссёр фильма Ф. Гэри Грей появляется в камео полицейского детектива, который протягивает детективу Гарце пакет с доказательствами.

*** Майкл Наттер, мэр Филадельфии, появляется в небольшом камео как человек, держащий библию, когда герой Джейми Фокса приносит присягу прокурора.

*** Съёмки прошли в Филадельфии и её окрестностях, в том числе в нынешней городской администрации и в старой городской тюрьме Broadmeadows. Тюрьма была закрыта в 1998 году и с того времени используется главным образом в качестве складских помещений. Бывшая тюремная столовая была преобразована в современный полицейский участок с рядами столов и всей прочей обстановкой.

*** Премьера фильма прошла на родине Джерарда Батлера в мультиплексе Cineworld в шотландском Глазго, который считается самым высоким кинотеатром в мире и одним из самых оживлённых во всей Великобритании.

*** На одной из ранних стадий производства проекта место режиссёра картины отводилось Фрэнку Дарабонту, а одну из ролей должна была сыграть Кэтрин Зета-Джонс.

*** Изначально планировалось, что роль Шелтона сыграет Джейми Фокс, а роль Райса — Джерард Батлер. Но затем Батлеру захотелось сыграть роль злодея, и Фокс предложил поменяться ролями.

*** В фильме часто цитируется известный военный писатель и теоретик Карл фон Клаузевиц (Carl von Clausewitz).

*** Кадры с болтающимся колесом тележки, на которой везут еду (а также «оружие») для Клайда Шелтона, — это дань фильму «Скала» (1996), где на подобной тележке террористы перевозят оружие по коридору тюрьмы «Алькатрас».
*** В фильме герой Джерарда Батлера называет координаты места, где находится адвокат Дарби: 39°57†с. ш. и 75°10†з. д., вертолёт прибывает на какой-то пустырь. На самом деле место с данными координатами находится в самом центре города Филадельфия на пересечении улиц Moravian St. и S 18th St. в квартале от Rittenhouse Square.

*** Когда Райс сидит за лэптопом Сары, видно, что лэптоп — MacBook Pro, однако, когда показывают экран работающего компьютера, можно заметить, что операционная система на нём вовсе не Mac OS, а Windows Vista.

Скриншоты:

загрузка...
Правила, инструкции, FAQ!!!
Торрент  Добавлен [05 фев 2015, 20:25] Скачать торрент
Скачать торрент
[ Размер 22.57 КБ / Просмотров 7 ]

Статус
Проверен 
 
Размер  8.69 ГБ
Приватный: Нет (DHT включён)
.torrent скачан  0
Как залить торрент? | Как скачать Torrent? | Как смотреть и слушать онлайн?  


     Отправить личное сообщение
   
Страница 1 из 1
Показать сообщения за:  Поле сортировки  
Начать новую тему Ответить на тему

   Похожие торренты   Автор   Ответы   Просмотры   Последнее сообщение 
В этой теме нет новых непрочитанных сообщений. Скачать торрент Законопослушный гражданин / Law abiding citizen (Ф. Гэри Грей / F. Gary Gray) [2009, США, триллер, драма, криминал, HDRip] [Unrated director's cut] AVO (Сербин)

в форуме Триллеры, Размер: 1.46 ГБ, Здоровье: 100%

Anonymous

0
56|19

48
0

15 апр 2014, 08:20

Anonymous Перейти к последнему сообщению

В этой теме нет новых непрочитанных сообщений. Скачать торрент Проверен [iPad] Законопослушный гражданин / Law Abiding Citizen (UNRATED) (Ф. Гэри Грей / F. Gary Gray) [2009, триллер, драма, криминал, BDRip, 720p]

в форуме Фильмы для iPod, iPhone, iPad, Размер: 3.23 ГБ, Здоровье: 100%

Anonymous

0
17|5

43
0

11 май 2015, 01:41

Anonymous Перейти к последнему сообщению

В этой теме нет новых непрочитанных сообщений. Скачать торрент Законопослушный гражданин / Law Abiding Citizen (Ф. Гэри Грей / F. Gary Gray) [2009, Триллер, драма, криминал, BDRip] [Театральная версия / Theatrical cut] Dub

в форуме Триллеры, Размер: 745.01 МБ, Здоровье: 100%

Anonymous

0
10|3

93
0

12 фев 2014, 11:47

Anonymous Перейти к последнему сообщению

В этой теме нет новых непрочитанных сообщений. Скачать торрент Проверен [iPhone] Законопослушный гражданин / Law Abiding Citizen (Ф. Гэри Грей) [2009 г., триллер, драма, DVDRip]

в форуме Фильмы для iPod, iPhone, iPad, Размер: 575.13 МБ, Здоровье: 100%

Anonymous

0
3|1

24
0

18 май 2015, 10:36

Anonymous Перейти к последнему сообщению

В этой теме нет новых непрочитанных сообщений. Скачать торрент Пила 4 / Saw IV (2007) BDRip 720p | Unrated Director's Cut

в форуме 720p | 1080p, Размер: 7.87 ГБ, Здоровье: 0%

Anonymous

0
0|0

23
0

18 фев 2014, 21:32

Anonymous Перейти к последнему сообщению



Сейчас этот форум просматривают: нет зарегистрированных пользователей и гости: 2


Вы не можете начинать темы
Вы не можете отвечать на сообщения
Вы не можете редактировать свои сообщения
Вы не можете удалять свои сообщения
Вы не можете добавлять вложения

Перейти:  

!ВНИМАНИЕ!
 Ресурс не предоставляет электронные версии произведений, а занимается лишь коллекционированием и каталогизацией ссылок, присылаемых и публикуемых на форуме нашими читателями. Если вы являетесь правообладателем какого-либо представленного материала и не желаете чтобы ссылка на него находилась в нашем каталоге, свяжитесь с нами и мы незамедлительно удалим её. Файлы для обмена на трекере предоставлены пользователями сайта, и администрация не несёт ответственности за их содержание. Просьба не заливать файлы, защищенные авторскими правами, а также файлы нелегального содержания!