На всех торрентах на трекере установлена скидка на скачивание в размере 100 процентов(а).
 Возможность скачивания торрента НЕ зависит от ограничений при низком ратио, низком аплоаде, требуемом ратио или требуемом аплоаде.


Начать новую тему Ответить на тему
Статистика раздачи
Размер: 1.45 ГБ | Добавлен: 20 апр 2013, 07:47 | Скачали: 0
Сидеров: 0  [0 байт/сек]    Личеров: 0  [0 байт/сек]
Пред. тема | След. тема 

Автор
Сообщение

СообщениеДобавлено: 20 апр 2013, 07:47 

Страна: США, Великобритания
Студия: Emmett/Furla Films, Likely Story...
Жанр: комедия
Год выпуска: 2012
Продолжительность: 01:33:33

Перевод: Профессиональный (дублированный)
Оригинальная аудиодорожка: нет
Cубтитры: нет

Режиссер: Стивен Фрирз / Stephen Frears

В фильме снимались: Ребекка Холл, Брюс Уиллис, Кэтрин Зета-Джонс, Джошуа Джексон, Фрэнк Грилло, Винс Вон, Джон Кэрролл Линч, Лаура Препон, Уэйн Пер, Джоэль Мюррей...

Вкратце: Девушка в 24 года переехала в Лас-Вегас, где нашла работу у добродушного толстяка Динка Хаймовица, содержащего нелегальную букмекерскую контору. Миляга Динк получил хорошее образование, но отличился в родном Нью-Йорке махинациями на ставках, из-за чего и сбежал в игорную столицу США. Игорным бизнесом Хаймовиц продолжал заниматься при помощи своего напарника букмекера Бернарда Роуза, который живет на Лонг-Айленде. Будучи математическими гениями, эти двое сколотили себе состояние на ставках и наивных клиентах, тогда как сама Бет научилась от них многим трюкам.





Исходник: Lay.the.Favorite.2012.720p.BluRay.x264.RoSubbed-SAiMORNY [PublicHD]
Качество: HDRip-AVC
Формат: MKV

Видео: 928x498 (1.85:1), 24.000 fps, H264 ~ 1778 kbps avg, 0.160 bit/pixel
Аудио: 48 kHz, AC3 6 ch, 448 kbps, русский


Общее
Полное имя : Fortuna.Vegasa.2012.P.HDRip-AVC_[Youtracker]_by_avproh.mkv
Формат : Matroska
Версия формата : Version 4 / Version 2
Размер файла : 1,45 Гбайт
Продолжительность : 1 ч. 33 м.
Общий поток : 2224 Кбит/сек
Дата кодирования : UTC 2013-04-19 23:57:20
Программа кодирования : mkvmerge v6.1.0 ('Old Devil') built on Mar 2 2013 14:32:37
Библиотека кодирования : libebml v1.3.0 + libmatroska v1.4.0

Видео
Идентификатор : 1
Формат : AVC
Формат/Информация : Advanced Video Codec
Профиль формата : High@L4.1
Параметр CABAC формата : Да
Параметр ReFrames формата : 11 кадров
Идентификатор кодека : V_MPEG4/ISO/AVC
Продолжительность : 1 ч. 33 м.
Битрейт : 1778 Кбит/сек
Ширина : 928 пикселей
Высота : 498 пикселей
Соотношение сторон : 1,85:1
Режим частоты кадров : Постоянный
Частота кадров : 24,000 кадра/сек
Цветовое пространство : YUV
Субдискретизация насыщенности : 4:2:0
Битовая глубина : 8 бит
Тип развёртки : Прогрессивная
Бит/(Пиксели*Кадры) : 0.160
Размер потока : 1,13 Гбайт (78%)
Библиотека кодирования : x264 core 119 r2106 07efeb4
Настройки программы : cabac=1 / ref=11 / deblock=1:-1:-1 / analyse=0x3:0x113 / me=umh / subme=9 / psy=1 / psy_rd=1.00:0.20 / mixed_ref=1 / me_range=32 / chroma_me=1 / trellis=1 / 8x8dct=1 / cqm=0 / deadzone=21,11 / fast_pskip=0 / chroma_qp_offset=-3 / threads=6 / sliced_threads=0 / nr=0 / decimate=1 / interlaced=0 / bluray_compat=0 / constrained_intra=0 / bframes=8 / b_pyramid=2 / b_adapt=1 / b_bias=0 / direct=3 / weightb=1 / open_gop=0 / weightp=2 / keyint=240 / keyint_min=23 / scenecut=40 / intra_refresh=0 / rc_lookahead=60 / rc=2pass / mbtree=1 / bitrate=1778 / ratetol=1.0 / qcomp=0.60 / qpmin=0 / qpmax=69 / qpstep=4 / cplxblur=20.0 / qblur=0.5 / ip_ratio=1.40 / aq=1:1.00
Язык : English
Default : Да
Forced : Нет

Аудио
Идентификатор : 2
Формат : AC-3
Формат/Информация : Audio Coding 3
Расширение режима : CM (complete main)
Параметр Endianness формата : Big
Идентификатор кодека : A_AC3
Продолжительность : 1 ч. 33 м.
Вид битрейта : Постоянный
Битрейт : 448 Кбит/сек
Каналы : 6 каналов
Расположение каналов : Front: L C R, Side: L R, LFE
Частота : 48,0 КГц
Битовая глубина : 16 бит
Метод сжатия : С потерями
Размер потока : 300 Мбайт (20%)
Язык : Russian
Default : Да
Forced : Нет


загрузка...
Правила, инструкции, FAQ!!!
Торрент  Добавлен [20 апр 2013, 07:47] Скачать торрент
Скачать торрент
[ Размер 15.2 КБ / Просмотров 21 ]

Статус  
 
Размер  1.45 ГБ
Приватный: Нет (DHT включён)
.torrent скачан  0
Как залить торрент? | Как скачать Torrent? | Как смотреть и слушать онлайн?  


     Отправить личное сообщение
   
Страница 1 из 1
Показать сообщения за:  Поле сортировки  
Начать новую тему Ответить на тему

   Похожие торренты   Автор   Ответы   Просмотры   Последнее сообщение 
В этой теме нет новых непрочитанных сообщений. Скачать торрент Проверен [iPad] Фортуна Вегаса / Lay the Favorite (Стивен Фрирз / Stephen Frears ) [2012, США, Великобритания, Франция, комедия, драма, BDRip, SD (576p)] DUB + Original + sub (eng)

в форуме Фильмы для iPod, iPhone, iPad, Размер: 1.61 ГБ, Здоровье: 100%

Гость

0
9|3

33
0

12 май 2015, 00:08

Гость Перейти к последнему сообщению

В этой теме нет новых непрочитанных сообщений. Скачать торрент Проверен Из Вегаса в Макао / Ao Men feng yun (2014) HDRip | L1

в форуме Комедии, Размер: 1.37 ГБ, Здоровье: 0%

Anonymous

0
0|0

43
0

11 июл 2014, 09:05

Anonymous Перейти к последнему сообщению

В этой теме нет новых непрочитанных сообщений. Скачать торрент Проверен Святой Джон из Лас-Вегаса / Saint John of Las Vegas (2009) HDRip | D

в форуме Комедии, Размер: 1.46 ГБ, Здоровье: 100%

Гость

0
70|48

96
50

19 янв 2015, 22:23

Гость Перейти к последнему сообщению

В этой теме нет новых непрочитанных сообщений. Скачать торрент Прометей / Prometheus (2012) HDRip | Лицензия

в форуме Фантастика, Фэнтези, Размер: 1.45 ГБ, Здоровье: 100%

Anonymous

0
310|7

39
5978

08 янв 2014, 23:45

Anonymous Перейти к последнему сообщению

В этой теме нет новых непрочитанных сообщений. Скачать торрент Проверен Контрабанда / Contraband (2012) HDRip | Лицензия

в форуме Боевики, Размер: 1.45 ГБ, Здоровье: 100%

Anonymous

0
26|0

45
475

19 июл 2014, 17:44

Anonymous Перейти к последнему сообщению



Сейчас этот форум просматривают: нет зарегистрированных пользователей и гости: 2


Вы не можете начинать темы
Вы не можете отвечать на сообщения
Вы не можете редактировать свои сообщения
Вы не можете удалять свои сообщения
Вы не можете добавлять вложения

Перейти:  

!ВНИМАНИЕ!
 Ресурс не предоставляет электронные версии произведений, а занимается лишь коллекционированием и каталогизацией ссылок, присылаемых и публикуемых на форуме нашими читателями. Если вы являетесь правообладателем какого-либо представленного материала и не желаете чтобы ссылка на него находилась в нашем каталоге, свяжитесь с нами и мы незамедлительно удалим её. Файлы для обмена на трекере предоставлены пользователями сайта, и администрация не несёт ответственности за их содержание. Просьба не заливать файлы, защищенные авторскими правами, а также файлы нелегального содержания!