На всех торрентах на трекере установлена скидка на скачивание в размере 100 процентов(а).
 Возможность скачивания торрента НЕ зависит от ограничений при низком ратио, низком аплоаде, требуемом ратио или требуемом аплоаде.


Начать новую тему Ответить на тему
Статистика раздачи
Размер: 7.75 ГБ | Добавлен: 05 фев 2015, 17:58 | Скачали: 55
Сидеров: 45  [0 байт/сек]    Личеров: 66  [0 байт/сек]
Пред. тема | След. тема 

Автор
Сообщение

СообщениеДобавлено: 05 фев 2015, 17:58 

    Русское название: Неверная
    Оригинальное название: Unfaithful
    Год выхода: 2002
    Жанр: триллер, драма, мелодрама
    Режиссер: Эдриан Лайн
    Выпущено: США, Германия, Франция
    Продолжительность: 02:03:37
    Перевод: Дублированный
    В ролях: Ричард Гир, Дайан Лейн, Оливер Мартинез, Доминик Чайниз, Маргарет Колин, Чад Лоу


Сюжет фильма
    Эдварду и Конни Самнер можно позавидовать: вместе с восьмилетним сыном, собакой и домоправительницей они наслаждаются жизнью в тихом пригороде Нью-Йорка. Но судьба в облике молодого человека, с которым Конни сталкивается в Сохо, наносит удар по этому воплощению "американской мечты" и по счастливому, хотя и слегка монотонному существованию супругов. Случайная встреча перерастает в бурный роман, в котором есть все - тайна, спонтанность, красота и... опасность. Когда Эдвард узнает о том, что жена от него что-то скрывает, он начинает за ней следить, выведывая мучительные подробности обмана. Не выдержав груза тайны, он встречается с любовником Конни, и копившийся в нем гнев выходит наружу приступом страшной, неожиданной для него самого ярости.


Файл
    Качество: BDRip 1080p (исходник Blu-ray Disc CEE)
    Видео: 1916x1040, 7896 Кбит/сек, 23,976 кадр/сек, AVC, x264, High@L4.1, 1.85:1, 0.165 Бит/[Пиксели*Кадры]
    Аудио 1: AC-3, 448 Кбит/сек, 6 канала(ов), 48,0 КГц - Дублированный / Русский
    Аудио 2: AC-3, 640 Кбит/сек, 6 канала(ов), 48,0 КГц - Оригинал / Английский
    Субтитры: Русские | Полные, Английские | Полные
    Форсированные субтитры: Нет
    Чаптеры (Главы): Есть




Автор Рипа:


Format : Matroska
Format version : Version 2
File size : 7.75 GiB
Duration : 2h 3mn
Overall bit rate : 8 970 Kbps
Movie name : Неверная.(2002).BDRip.1080p.[envy]
Encoded date : UTC 2015-02-04 07:08:38
Writing application : mkvmerge v5.8.0 ('No Sleep / Pillow') built on Sep 2 2012 15:37:04
Writing library : libebml v1.2.3 + libmatroska v1.3.0

Video
ID : 1
Format : AVC
Format/Info : Advanced Video Codec
Format profile : High@L4.1
Format settings, CABAC : Yes
Format settings, ReFrames : 4 frames
Codec ID : V_MPEG4/ISO/AVC
Duration : 2h 3mn
Bit rate : 7 896 Kbps
Width : 1 916 pixels
Height : 1 040 pixels
Display aspect ratio : 1.85:1
Frame rate mode : Constant
Frame rate : 23.976 fps
Color space : YUV
Chroma subsampling : 4:2:0
Bit depth : 8 bits
Scan type : Progressive
Bits/(Pixel*Frame) : 0.165
Stream size : 6.65 GiB (86%)
Title : Неверная.(2002).BDRip.1080p.[envy]
Writing library : x264 core 144 r2525 40bb568
Encoding settings : cabac=1 / ref=4 / deblock=1:-3:-3 / analyse=0x3:0x133 / me=umh / subme=11 / psy=1 / psy_rd=1.00:0.00 / mixed_ref=1 / me_range=32 / chroma_me=1 / trellis=2 / 8x8dct=1 / cqm=0 / deadzone=21,11 / fast_pskip=0 / chroma_qp_offset=-2 / threads=12 / lookahead_threads=2 / sliced_threads=0 / nr=0 / decimate=1 / interlaced=0 / bluray_compat=0 / constrained_intra=0 / bframes=9 / b_pyramid=2 / b_adapt=2 / b_bias=0 / direct=3 / weightb=1 / open_gop=0 / weightp=2 / keyint=240 / keyint_min=23 / scenecut=40 / intra_refresh=0 / rc=2pass / mbtree=0 / bitrate=7896 / ratetol=2.0 / qcomp=0.60 / qpmin=0 / qpmax=69 / qpstep=4 / cplxblur=20.0 / qblur=0.5 / ip_ratio=1.40 / pb_ratio=1.30 / aq=2:1.00
Language : English
Default : Yes
Forced : No

Audio #1
ID : 2
Format : AC-3
Format/Info : Audio Coding 3
Mode extension : CM (complete main)
Format settings, Endianness : Big
Codec ID : A_AC3
Duration : 2h 3mn
Bit rate mode : Constant
Bit rate : 448 Kbps
Channel(s) : 6 channels
Channel positions : Front: L C R, Side: L R, LFE
Sampling rate : 48.0 KHz
Bit depth : 16 bits
Compression mode : Lossy
Stream size : 396 MiB (5%)
Title : Dub
Language : Russian
Default : Yes
Forced : No

Audio #2
ID : 3
Format : AC-3
Format/Info : Audio Coding 3
Mode extension : CM (complete main)
Format settings, Endianness : Big
Codec ID : A_AC3
Duration : 2h 3mn
Bit rate mode : Constant
Bit rate : 640 Kbps
Channel(s) : 6 channels
Channel positions : Front: L C R, Side: L R, LFE
Sampling rate : 48.0 KHz
Bit depth : 16 bits
Compression mode : Lossy
Stream size : 566 MiB (7%)
Title : Eng
Language : English
Default : No
Forced : No

Text #1
ID : 4
Format : UTF-8
Codec ID : S_TEXT/UTF8
Codec ID/Info : UTF-8 Plain Text
Title : full
Language : Russian
Default : No
Forced : No

Text #2
ID : 5
Format : UTF-8
Codec ID : S_TEXT/UTF8
Codec ID/Info : UTF-8 Plain Text
Title : full
Language : English
Default : No
Forced : No

Menu
00:00:00.000 : en:00:00:00.000
00:05:40.756 : en:00:05:40.756
00:10:09.775 : en:00:10:09.775
00:15:50.532 : en:00:15:50.532
00:20:55.420 : en:00:20:55.420
00:25:24.439 : en:00:25:24.439
00:30:29.326 : en:00:30:29.326
00:35:34.214 : en:00:35:34.214
00:40:39.102 : en:00:40:39.102
00:45:43.990 : en:00:45:43.990
00:50:48.878 : en:00:50:48.878
00:55:53.766 : en:00:55:53.766
01:00:58.653 : en:01:00:58.653
01:05:45.607 : en:01:05:45.607
01:10:50.494 : en:01:10:50.494
01:15:55.382 : en:01:15:55.382
01:20:42.336 : en:01:20:42.336
01:25:47.223 : en:01:25:47.223
01:30:52.111 : en:01:30:52.111
01:35:56.999 : en:01:35:56.999
01:40:43.952 : en:01:40:43.952
01:45:48.840 : en:01:45:48.840
01:50:53.728 : en:01:50:53.728
01:55:58.616 : en:01:55:58.616
02:00:45.569 : en:02:00:45.569
02:05:50.457 : en:02:05:50.457
02:10:55.345 : en:02:10:55.345
02:14:30.560 : en:02:14:30.560



#777
загрузка...
Правила, инструкции, FAQ!!!
Торрент  Добавлен [05 фев 2015, 17:58] Скачать торрент
Скачать торрент
[ Размер 39.28 КБ / Просмотров 4 ]

Статус
Проверен 
 
Размер  7.75 ГБ
Приватный: Нет (DHT включён)
.torrent скачан  55
Как залить торрент? | Как скачать Torrent? | Как смотреть и слушать онлайн?  


     Отправить личное сообщение
   
Страница 1 из 1
Показать сообщения за:  Поле сортировки  
Начать новую тему Ответить на тему

   Похожие торренты   Автор   Ответы   Просмотры   Последнее сообщение 
В этой теме нет новых непрочитанных сообщений. Скачать торрент Проверен [iPad] Неверная / Unfaithful (Adrian Lyne / Эдриан Лайн) [2002, Триллер, драма, BDRip]

в форуме Фильмы для iPod, iPhone, iPad, Размер: 2.29 ГБ, Здоровье: 100%

Anonymous

0
12|4

29
0

12 май 2015, 00:06

Anonymous Перейти к последнему сообщению

В этой теме нет новых непрочитанных сообщений. Скачать торрент Проверен Три икса / xXx (2002) BDRip 1080p

в форуме 720p | 1080p, Размер: 7.95 ГБ, Здоровье: 100%

Anonymous

0
58|7

27
22

08 апр 2015, 21:32

Anonymous Перейти к последнему сообщению

В этой теме нет новых непрочитанных сообщений. Скачать торрент Проверен Люди в черном 2 / Men in Black II (2002) BDRip 1080p

в форуме 720p | 1080p, Размер: 4.37 ГБ, Здоровье: 100%

Гость

0
26|16

28
38

13 ноя 2016, 22:58

Гость Перейти к последнему сообщению

В этой теме нет новых непрочитанных сообщений. Скачать торрент Проверен Возмещение ущерба / Collateral Damage (2002) BDRip 1080p

в форуме 720p | 1080p, Размер: 7.95 ГБ, Здоровье: 100%

Гость

0
20|11

60
14

19 апр 2015, 23:27

Гость Перейти к последнему сообщению

В этой теме нет новых непрочитанных сообщений. Скачать торрент Проверен Особое мнение / Minority Report (2002) BDRip 1080p

в форуме 720p | 1080p, Размер: 7.94 ГБ, Здоровье: 100%

Гость

0
114|6

128
205

08 дек 2014, 18:11

Гость Перейти к последнему сообщению



Сейчас этот форум просматривают: нет зарегистрированных пользователей и гости: 1


Вы не можете начинать темы
Вы не можете отвечать на сообщения
Вы не можете редактировать свои сообщения
Вы не можете удалять свои сообщения
Вы не можете добавлять вложения

Перейти:  

!ВНИМАНИЕ!
 Ресурс не предоставляет электронные версии произведений, а занимается лишь коллекционированием и каталогизацией ссылок, присылаемых и публикуемых на форуме нашими читателями. Если вы являетесь правообладателем какого-либо представленного материала и не желаете чтобы ссылка на него находилась в нашем каталоге, свяжитесь с нами и мы незамедлительно удалим её. Файлы для обмена на трекере предоставлены пользователями сайта, и администрация не несёт ответственности за их содержание. Просьба не заливать файлы, защищенные авторскими правами, а также файлы нелегального содержания!