На всех торрентах на трекере установлена скидка на скачивание в размере 100 процентов(а).
 Возможность скачивания торрента НЕ зависит от ограничений при низком ратио, низком аплоаде, требуемом ратио или требуемом аплоаде.


Начать новую тему Ответить на тему
Статистика раздачи
Размер: 4.98 ГБ | Добавлен: 01 фев 2015, 22:12 | Скачали: 168
Сидеров: 15  [0 байт/сек]    Личеров: 1  [0 байт/сек]
Пред. тема | След. тема 

Автор
Сообщение

СообщениеДобавлено: 01 фев 2015, 22:12 

Название: Искусство войны
Оригинальное название: The Art of War
Год выхода: 2000
Жанр: Боевик, триллер
Режиссер: Кристиан Дюге
В ролях: Уэсли Снайпс, Энн Арчер, Дональд Сазерленд, Мари Матико, Майкл Бин, Кэри-Хироюки Тагава, Мори Чайкин

О фильме:
Нил Шоу - лучший спецагент секретного подразделения ООН. При выполнении очередного задания он оказывается главным подозреваемым в убийстве китайского посла, которое ставит под угрозу подписание важного соглашения между Китаем и США. Скрываясь от ФБР и вступая в смертельный бой с китайской триадой, Шоу должен снять с себя подозрение и найти убийцу. Но в мире политических тайн и международных заговоров это становится почти невыполнимой задачей. И врагом может оказаться каждый. А награду получит только тот, кто по-настоящему владеет искусством войны.



Страна: США
Студия: Amen Ra Films, Canadian Film or Video Production Tax Credit (CPTC), Filmline International Inc., Franchise Pictures, Imperial Entertainment Group, Morgan Creek Productions, Quebec Film and Television Tax Credit
Продолжительность: 01:57:24
Перевод: Профессиональный двухголосый, авторский одноголосый


Кодек: MPEG-4 AVC
Качество: BDRip 720p
Видео: 4089 Кбит/с, 1280x536, 23.976 кадр/с
Звук: Русский (AC3, 6 ch, 448 Кбит/с), английский (AC3, 6 ch, 640 Кбит/с)
Субтитры: Русские, английские

Рип от StarbirS
Релиз группы NovaLan

Aудио#1: Russian: 48 kHz, AC3, 3/2 (L,C,R,l,r) + LFE ch, ~448.00 kbps avg - Профессиональный двухголосый
Aудио#2: Russian: 48 kHz, AC3, 3/2 (L,C,R,l,r) + LFE ch, ~448.00 kbps avg - Авторский одноголосый (А. Гаврилов)
Aудио#3: Russian: 48 kHz, AC3, 3/2 (L,C,R,l,r) + LFE ch, ~448.00 kbps avg - Авторский одноголосый (Ю. Живов)
Aудио#4: English: 48 kHz, AC3, 3/2 (L,C,R,l,r) + LFE ch, ~640.00 kbps avg - Оригинал

Субтитры: Русские, английские

x264 [info]: frame I:1210 Avg QP:15.78 size: 77845
x264 [info]: frame P:46578 Avg QP:18.66 size: 34439
x264 [info]: frame B:121089 Avg QP:20.66 size: 15690

Формат : Matroska
Версия формата : Version 4 / Version 2
Размер файла : 4,98 Гбайт
Продолжительность : 1 ч. 57 м.
Общий поток : 6072 Кбит/сек
Название фильма : The.Art.of.War.2000.x264.BDRip.(720p).NovaLan
Дата кодирования : UTC 2015-01-21 09:31:03
Программа кодирования : mkvmerge v7.5.0 ('Glass Culture') 64bit built on Jan 4 2015 16:48:44
Библиотека кодирования : libebml v1.3.1 + libmatroska v1.4.2
DURATION : 01:57:24.608000000
NUMBER_OF_FRAMES : 220144
NUMBER_OF_BYTES : 563568640
_STATISTICS_WRITING_APP : mkvmerge v7.5.0 ('Glass Culture') 64bit built on Jan 4 2015 16:48:44
_STATISTICS_WRITING_DATE_UTC : 2015-01-21 09:31:03
_STATISTICS_TAGS : BPS DURATION NUMBER_OF_FRAMES NUMBER_OF_BYTES

Видео
Идентификатор : 1
Формат : AVC
Формат/Информация : Advanced Video Codec
Профиль формата : High@L4.1
Параметр CABAC формата : Да
Параметр ReFrames формата : 9 кадров
Идентификатор кодека : V_MPEG4/ISO/AVC
Продолжительность : 1 ч. 57 м.
Битрейт : 4089 Кбит/сек
Ширина : 1280 пикселей
Высота : 536 пикселей
Соотношение сторон : 2,40:1
Режим частоты кадров : Постоянный
Частота кадров : 23,976 кадра/сек
Цветовое пространство : YUV
Субдискретизация насыщенности : 4:2:0
Битовая глубина : 8 бит
Тип развёртки : Прогрессивная
Бит/(Пиксели*Кадры) : 0.249
Размер потока : 3,25 Гбайт (65%)
Заголовок : The.Art.of.War.2000.x264.BDRip.(720p).by.StarbirS
Библиотека кодирования : x264 core 144 r2525 40bb568
Настройки программы : cabac=1 / ref=9 / deblock=1:-3:-3 / analyse=0x3:0x133 / me=umh / subme=11 / psy=1 / psy_rd=0.95:0.00 / mixed_ref=1 / me_range=48 / chroma_me=1 / trellis=2 / 8x8dct=1 / cqm=0 / deadzone=21,11 / fast_pskip=0 / chroma_qp_offset=3 / threads=12 / lookahead_threads=8 / sliced_threads=0 / nr=0 / decimate=1 / interlaced=0 / bluray_compat=0 / constrained_intra=0 / bframes=8 / b_pyramid=2 / b_adapt=2 / b_bias=0 / direct=3 / weightb=1 / open_gop=1 / weightp=2 / keyint=240 / keyint_min=23 / scenecut=40 / intra_refresh=0 / rc=2pass / mbtree=0 / bitrate=4089 / ratetol=1.0 / qcomp=0.65 / qpmin=0 / qpmax=69 / qpstep=4 / cplxblur=20.0 / qblur=0.5 / ip_ratio=1.40 / pb_ratio=1.30 / aq=1:0.90
Язык : English
Default : Да
Forced : Нет
DURATION : 01:57:23.579000000
NUMBER_OF_FRAMES : 168877
NUMBER_OF_BYTES : 3598167548
_STATISTICS_WRITING_APP : mkvmerge v7.5.0 ('Glass Culture') 64bit built on Jan 4 2015 16:48:44
_STATISTICS_WRITING_DATE_UTC : 2015-01-21 09:31:03
_STATISTICS_TAGS : BPS DURATION NUMBER_OF_FRAMES NUMBER_OF_BYTES

Аудио #1
Идентификатор : 2
Формат : AC-3
Формат/Информация : Audio Coding 3
Расширение режима : CM (complete main)
Параметр Endianness формата : Big
Идентификатор кодека : A_AC3
Продолжительность : 1 ч. 57 м.
Вид битрейта : Постоянный
Битрейт : 448 Кбит/сек
Каналы : 6 каналов
Расположение каналов : Front: L C R, Side: L R, LFE
Частота : 48,0 КГц
Битовая глубина : 16 бит
Метод сжатия : С потерями
Размер потока : 376 Мбайт (7%)
Заголовок : Профессиональный двухголосый
Язык : Russian
Default : Да
Forced : Нет

Аудио #2
Идентификатор : 3
Формат : AC-3
Формат/Информация : Audio Coding 3
Расширение режима : CM (complete main)
Параметр Endianness формата : Big
Идентификатор кодека : A_AC3
Продолжительность : 1 ч. 57 м.
Вид битрейта : Постоянный
Битрейт : 448 Кбит/сек
Каналы : 6 каналов
Расположение каналов : Front: L C R, Side: L R, LFE
Частота : 48,0 КГц
Битовая глубина : 16 бит
Метод сжатия : С потерями
Размер потока : 376 Мбайт (7%)
Заголовок : Авторский одноголосый (А. Гаврилов)
Default : Нет
Forced : Нет

Аудио #3
Идентификатор : 4
Формат : AC-3
Формат/Информация : Audio Coding 3
Расширение режима : CM (complete main)
Параметр Endianness формата : Big
Идентификатор кодека : A_AC3
Продолжительность : 1 ч. 57 м.
Вид битрейта : Постоянный
Битрейт : 448 Кбит/сек
Каналы : 6 каналов
Расположение каналов : Front: L C R, Side: L R, LFE
Частота : 48,0 КГц
Битовая глубина : 16 бит
Метод сжатия : С потерями
Размер потока : 376 Мбайт (7%)
Заголовок : Авторский одноголосый (Ю. Живов)
Язык : Russian
Default : Нет
Forced : Нет

Аудио #4
Идентификатор : 5
Формат : AC-3
Формат/Информация : Audio Coding 3
Расширение режима : CM (complete main)
Параметр Endianness формата : Big
Идентификатор кодека : A_AC3
Продолжительность : 1 ч. 57 м.
Вид битрейта : Постоянный
Битрейт : 640 Кбит/сек
Каналы : 6 каналов
Расположение каналов : Front: L C R, Side: L R, LFE
Частота : 48,0 КГц
Битовая глубина : 16 бит
Метод сжатия : С потерями
Размер потока : 537 Мбайт (11%)
Язык : English
Default : Нет
Forced : Нет

Текст #1
Идентификатор : 6
Формат : UTF-8
Идентификатор кодека : S_TEXT/UTF8
Идентификатор кодека/Информация : UTF-8 Plain Text
Язык : Russian
Default : Да
Forced : Нет

Текст #2
Идентификатор : 7
Формат : UTF-8
Идентификатор кодека : S_TEXT/UTF8
Идентификатор кодека/Информация : UTF-8 Plain Text
Язык : English
Default : Нет
Forced : Нет

Меню
00:00:00.000 : en:00:00:00.000
00:04:15.046 : en:00:04:15.046
00:06:38.439 : en:00:06:38.439
00:08:57.995 : en:00:08:57.995
00:12:25.161 : en:00:12:25.161
00:16:56.682 : en:00:16:56.682
00:22:01.361 : en:00:22:01.361
00:26:05.063 : en:00:26:05.063
00:29:26.181 : en:00:29:26.181
00:32:56.933 : en:00:32:56.933
00:35:57.655 : en:00:35:57.655
00:37:23.491 : en:00:37:23.491
00:41:01.041 : en:00:41:01.041
00:43:10.337 : en:00:43:10.337
00:45:34.898 : en:00:45:34.898
00:49:58.495 : en:00:49:58.495
00:54:42.278 : en:00:54:42.278
00:58:28.505 : en:00:58:28.505
01:02:52.101 : en:01:02:52.101
01:06:50.381 : en:01:06:50.381
01:09:53.939 : en:01:09:53.939
01:14:03.939 : en:01:14:03.939
01:17:52.584 : en:01:17:52.584
01:20:18.814 : en:01:20:18.814
01:24:17.510 : en:01:24:17.510
01:29:11.387 : en:01:29:11.387
01:31:22.268 : en:01:31:22.268
01:33:59.592 : en:01:33:59.592
01:37:37.726 : en:01:37:37.726
01:40:06.917 : en:01:40:06.917
01:43:11.894 : en:01:43:11.894
01:46:01.188 : en:01:46:01.188
01:48:58.448 : en:01:48:58.448
01:50:42.052 : en:01:50:42.052
01:53:40.563 : en:01:53:40.563




Релиз от:
загрузка...
Правила, инструкции, FAQ!!!
Торрент  Добавлен [01 фев 2015, 22:12] Скачать торрент
Скачать торрент
[ Размер 25.46 КБ / Просмотров 1 ]

Статус
Проверен 
 
Размер  4.98 ГБ
Приватный: Нет (DHT включён)
.torrent скачан  168
Как залить торрент? | Как скачать Torrent? | Как смотреть и слушать онлайн?  


     Отправить личное сообщение
   
Страница 1 из 1
Показать сообщения за:  Поле сортировки  
Начать новую тему Ответить на тему

   Похожие торренты   Автор   Ответы   Просмотры   Последнее сообщение 
В этой теме нет новых непрочитанных сообщений. Скачать торрент Проверен Сунь-Цзы - Искусство побеждать (Искусство войны). В переводе и с комментариями Бронислава Виногродско [Багдасаров Алексей, 2015, Древневосточная литература, философия, 128 kbps], M4B

в форуме Аудиокниги (AAC, ALAC), Размер: 144.43 МБ, Здоровье: 100%

Anonymous

0
34|11

13
0

28 авг 2016, 20:16

Anonymous Перейти к последнему сообщению

В этой теме нет новых непрочитанных сообщений. Скачать торрент Проверен Искусство войны: Корея (2011) PC | Steam-Rip

в форуме Стратегии, Размер: 1.46 ГБ, Здоровье: 100%

Anonymous

0
14|0

147
10

11 июл 2014, 13:49

Anonymous Перейти к последнему сообщению

В этой теме нет новых непрочитанных сообщений. Скачать торрент Библиотечные войны / Toshokan sensô / Library Wars (2013) BDRip 720p | L2

в форуме 720p | 1080p, Размер: 5.63 ГБ, Здоровье: 0%

Anonymous

0
0|0

35
0

23 фев 2014, 21:06

Anonymous Перейти к последнему сообщению

В этой теме нет новых непрочитанных сообщений. Скачать торрент Цветы войны / The Flowers of War / Jin líng shí san chai (2011) BDRip 720p | Лицензия

в форуме 720p | 1080p, Размер: 4.37 ГБ, Здоровье: 0%

Anonymous

0
0|0

29
0

10 дек 2013, 20:09

Anonymous Перейти к последнему сообщению

В этой теме нет новых непрочитанных сообщений. Скачать торрент Проверен Искусство войны: Африка 1943 / Theatre of War 2: Africa 1943 (2009) PC | Steam-Rip

в форуме Стратегии, Размер: 1.58 ГБ, Здоровье: 100%

Anonymous

0
17|0

174
179

11 июл 2014, 13:51

Anonymous Перейти к последнему сообщению



Сейчас этот форум просматривают: нет зарегистрированных пользователей и гости: 3


Вы не можете начинать темы
Вы не можете отвечать на сообщения
Вы не можете редактировать свои сообщения
Вы не можете удалять свои сообщения
Вы не можете добавлять вложения

Перейти:  

!ВНИМАНИЕ!
 Ресурс не предоставляет электронные версии произведений, а занимается лишь коллекционированием и каталогизацией ссылок, присылаемых и публикуемых на форуме нашими читателями. Если вы являетесь правообладателем какого-либо представленного материала и не желаете чтобы ссылка на него находилась в нашем каталоге, свяжитесь с нами и мы незамедлительно удалим её. Файлы для обмена на трекере предоставлены пользователями сайта, и администрация не несёт ответственности за их содержание. Просьба не заливать файлы, защищенные авторскими правами, а также файлы нелегального содержания!