На всех торрентах на трекере установлена скидка на скачивание в размере 100 процентов(а).
 Возможность скачивания торрента НЕ зависит от ограничений при низком ратио, низком аплоаде, требуемом ратио или требуемом аплоаде.


Начать новую тему Ответить на тему
Статистика раздачи
Размер: 7.23 ГБ | Добавлен: 01 фев 2015, 21:48 | Скачали: 1
Сидеров: 1  [0 байт/сек]    Личеров: 116  [0 байт/сек]
Пред. тема | След. тема 

Автор
Сообщение

СообщениеДобавлено: 01 фев 2015, 21:48 

Год выпуска: 2013
Жанр: Боевик
Выпущено: США, Voltage Pictures
Режиссер: Киони Ваксман
В ролях: Стивен Сигал, Винг Рэймс, Дэнни Трехо, Хесус мл., Брен Фостер, Дженни Гэбриэлль, Дэвид Хаус, Сара Минник, Эрик Стейниг, Дж. Энтони Пена

О фильме:
Криминальная империя была родной для Александра Коатеса и разрушительной для его врагов, пока он номер один. Роман Хурст, испортил то, что было обычным делом. Александр спас своему протеже жизнь, но запачкал руки, что заставило Хурста уйти в отставку навсегда. Вскоре Александр понял, что ему нужна помощь Хурста в последний раз, когда появился Айсман, безжалостный убийца.




Качество: BDRip (1080p)
Видео: MPEG-4 AVC, 9354 Кбит/с, 1920x1080, 23.976 кадр/с
Аудио: Русский (АС3, 6 ch, 448 Кбит/с), английский (АС3, 6 ch, 448 Кбит/с)
Продолжительность: 01:38:55
Перевод: Профессиональный многоголосый (DVD)
Субтитры: Английские, испанские

General
Unique ID : 202132559452447228615602046967407370110 (0x9811509D3052953497BCC917D526DF7E)
Complete name : F:FILMSКарательный отряд.2013.1080p.BDRip.mkv
Format : Matroska
Format version : Version 4 / Version 2
File size : 7.23 GiB
Duration : 1h 38mn
Overall bit rate : 10.5 Mbps
Movie name : Force of Execution
Encoded date : UTC 2015-02-01 16:23:04
Writing application : mkvmerge v7.5.0 ('Glass Culture') 64bit built on Jan 4 2015 16:48:44
Writing library : libebml v1.3.1 + libmatroska v1.4.2
DURATION : 01:38:54.048000000
NUMBER_OF_FRAMES : 185439
NUMBER_OF_BYTES : 332306688
_STATISTICS_WRITING_APP : mkvmerge v7.5.0 ('Glass Culture') 64bit built on Jan 4 2015 16:48:44
_STATISTICS_WRITING_DATE_UT : 2015-02-01 16:23:04
_STATISTICS_TAGS : BPS DURATION NUMBER_OF_FRAMES NUMBER_OF_BYTES

Video
ID : 1
Format : AVC
Format/Info : Advanced Video Codec
Format profile : High@L4.1
Format settings, CABAC : Yes
Format settings, ReFrames : 4 frames
Codec ID : V_MPEG4/ISO/AVC
Duration : 1h 38mn
Bit rate : 9 354 Kbps
Width : 1 920 pixels
Height : 1 080 pixels
Display aspect ratio : 16:9
Frame rate mode : Constant
Frame rate : 23.976 fps
Color space : YUV
Chroma subsampling : 4:2:0
Bit depth : 8 bits
Scan type : Progressive
Bits/(Pixel*Frame) : 0.188
Stream size : 6.46 GiB (89%)
Title : Force of Execution (2013)
Language : English
Default : Yes
Forced : No
DURATION : 01:38:54.929000000
NUMBER_OF_FRAMES : 142296
NUMBER_OF_BYTES : 7086710302
_STATISTICS_WRITING_APP : mkvmerge v7.5.0 ('Glass Culture') 64bit built on Jan 4 2015 16:48:44
_STATISTICS_WRITING_DATE_UT : 2015-02-01 16:23:04
_STATISTICS_TAGS : BPS DURATION NUMBER_OF_FRAMES NUMBER_OF_BYTES

Audio #1
ID : 2
Format : AC-3
Format/Info : Audio Coding 3
Mode extension : CM (complete main)
Format settings, Endianness : Big
Codec ID : A_AC3
Duration : 1h 38mn
Bit rate mode : Constant
Bit rate : 448 Kbps
Channel(s) : 6 channels
Channel positions : Front: L C R, Side: L R, LFE
Sampling rate : 48.0 KHz
Bit depth : 16 bits
Compression mode : Lossy
Stream size : 317 MiB (4%)
Title : Профессиональный многоголосый (DVD)
Language : Russian
Default : Yes
Forced : No

Audio #2
ID : 3
Format : AC-3
Format/Info : Audio Coding 3
Mode extension : CM (complete main)
Format settings, Endianness : Big
Codec ID : A_AC3
Duration : 1h 38mn
Bit rate mode : Constant
Bit rate : 448 Kbps
Channel(s) : 6 channels
Channel positions : Front: L C R, Side: L R, LFE
Sampling rate : 48.0 KHz
Bit depth : 16 bits
Compression mode : Lossy
Stream size : 317 MiB (4%)
Title : ENG
Language : English
Default : No
Forced : No

Text #1
ID : 4
Format : VobSub
Muxing mode : zlib
Codec ID : S_VOBSUB
Codec ID/Info : The same subtitle format used on DVDs
Language : English
Default : No
Forced : No

Text #2
ID : 5
Format : VobSub
Muxing mode : zlib
Codec ID : S_VOBSUB
Codec ID/Info : The same subtitle format used on DVDs
Language : Spanish
Default : No
Forced : No

Menu
00:00:00.000 : en:00:00:00.000
00:06:36.104 : en:00:06:36.104
00:18:10.965 : en:00:18:10.965
00:24:51.448 : en:00:24:51.448
00:34:31.569 : en:00:34:31.569
00:47:11.495 : en:00:47:11.495
00:54:15.377 : en:00:54:15.377
01:00:45.559 : en:01:00:45.559
01:07:32.006 : en:01:07:32.006
01:16:10.941 : en:01:16:10.941
01:22:48.630 : en:01:22:48.630
01:35:19.797 : en:01:35:19.797





загрузка...
Правила, инструкции, FAQ!!!
Торрент  Добавлен [01 фев 2015, 21:48] Скачать торрент
Скачать торрент
[ Размер 18.67 КБ / Просмотров 10 ]

Статус
Проверен 
 
Размер  7.23 ГБ
Приватный: Нет (DHT включён)
.torrent скачан  1
Как залить торрент? | Как скачать Torrent? | Как смотреть и слушать онлайн?  


     Отправить личное сообщение
   
Страница 1 из 1
Показать сообщения за:  Поле сортировки  
Начать новую тему Ответить на тему

   Похожие торренты   Автор   Ответы   Просмотры   Последнее сообщение 
В этой теме нет новых непрочитанных сообщений. Скачать торрент Карательный отряд / Force of Execution (2013) HDRip | L1

в форуме Боевики, Размер: 1.37 ГБ, Здоровье: 100%

Anonymous

0
157|32

29
1611

28 дек 2013, 23:13

Anonymous Перейти к последнему сообщению

В этой теме нет новых непрочитанных сообщений. Скачать торрент Летучий отряд Скотланд-Ярда / The Sweeney (2012) BDRip 1080p | Лицензия

в форуме 720p | 1080p, Размер: 6.59 ГБ, Здоровье: 0%

Anonymous

0
0|0

30
0

08 янв 2014, 19:14

Anonymous Перейти к последнему сообщению

В этой теме нет новых непрочитанных сообщений. Скачать торрент Проверен Самолет президента / Air Force One (1997) BDRip [H.264/1080p-LQ]

в форуме 720p | 1080p, Размер: 7.76 ГБ, Здоровье: 100%

Anonymous

0
8|4

16
0

02 ноя 2014, 17:02

Anonymous Перейти к последнему сообщению

В этой теме нет новых непрочитанных сообщений. Скачать торрент Проверен Звёздные войны: Пробуждение силы / Star Wars: Episode VII - The Force Awakens (2015) BDRip 1080p | iTunes

в форуме 720p | 1080p, Размер: 17.56 ГБ, Здоровье: 100%

Гость

0
1220|550

282
3139

01 апр 2016, 20:17

Гость Перейти к последнему сообщению

В этой теме нет новых непрочитанных сообщений. Скачать торрент Проверен Евтушенко Алексей - Трилогия Отряд. Отряд - 3 [Малишевский Е.В., 2006, OGG Vorbis, 48 kbps]

в форуме Российская фантастика, фэнтези, мистика, ужасы, фанфики, Размер: 197.96 МБ, Здоровье: 0%

Anonymous

0
0|0

1
0

10 сен 2016, 14:52

Anonymous Перейти к последнему сообщению



Сейчас этот форум просматривают: нет зарегистрированных пользователей и гости: 1


Вы не можете начинать темы
Вы не можете отвечать на сообщения
Вы не можете редактировать свои сообщения
Вы не можете удалять свои сообщения
Вы не можете добавлять вложения

Перейти:  

!ВНИМАНИЕ!
 Ресурс не предоставляет электронные версии произведений, а занимается лишь коллекционированием и каталогизацией ссылок, присылаемых и публикуемых на форуме нашими читателями. Если вы являетесь правообладателем какого-либо представленного материала и не желаете чтобы ссылка на него находилась в нашем каталоге, свяжитесь с нами и мы незамедлительно удалим её. Файлы для обмена на трекере предоставлены пользователями сайта, и администрация не несёт ответственности за их содержание. Просьба не заливать файлы, защищенные авторскими правами, а также файлы нелегального содержания!